  0
SECTION
  2
HEADER
  9
$ACADVER
  1
AC1018
  9
$ACADMAINTVER
 70
     0
  9
$DWGCODEPAGE
  3
ANSI_1252
  9
$INSBASE
 10
0.0
 20
0.0
 30
0.0
  9
$EXTMIN
 10
0.0
 20
0.0
 30
0.0
  9
$EXTMAX
 10
125.0
 20
100.0
 30
0.0
  9
$LIMMIN
 10
0.0
 20
0.0
  9
$LIMMAX
 10
125.0
 20
100.0
  9
$ORTHOMODE
 70
     0
  9
$REGENMODE
 70
     1
  9
$FILLMODE
 70
     1
  9
$QTEXTMODE
 70
     0
  9
$MIRRTEXT
 70
     1
  9
$LTSCALE
 40
1.0
  9
$ATTMODE
 70
     1
  9
$TEXTSIZE
 40
0.1388888889
  9
$TRACEWID
 40
0.05
  9
$TEXTSTYLE
  7
Standard
  9
$CLAYER
  8
0
  9
$CELTYPE
  6
ByLayer
  9
$CECOLOR
 62
   256
  9
$CELTSCALE
 40
1.0
  9
$DISPSILH
 70
     0
  9
$DIMSCALE
 40
1.0
  9
$DIMASZ
 40
1.0
  9
$DIMEXO
 40
0.0393700787
  9
$DIMDLI
 40
0.38
  9
$DIMRND
 40
0.0
  9
$DIMDLE
 40
0.0
  9
$DIMEXE
 40
0.0393700787
  9
$DIMTP
 40
0.0
  9
$DIMTM
 40
0.0
  9
$DIMTXT
 40
1.5
  9
$DIMCEN
 40
0.09
  9
$DIMTSZ
 40
0.0
  9
$DIMTOL
 70
     0
  9
$DIMLIM
 70
     0
  9
$DIMTIH
 70
     1
  9
$DIMTOH
 70
     1
  9
$DIMSE1
 70
     0
  9
$DIMSE2
 70
     0
  9
$DIMTAD
 70
     0
  9
$DIMZIN
 70
     0
  9
$DIMBLK
  1

  9
$DIMASO
 70
     1
  9
$DIMSHO
 70
     1
  9
$DIMPOST
  1

  9
$DIMAPOST
  1

  9
$DIMALT
 70
     0
  9
$DIMALTD
 70
     2
  9
$DIMALTF
 40
25.4
  9
$DIMLFAC
 40
1.0
  9
$DIMTOFL
 70
     0
  9
$DIMTVP
 40
0.0
  9
$DIMTIX
 70
     0
  9
$DIMSOXD
 70
     0
  9
$DIMSAH
 70
     0
  9
$DIMBLK1
  1

  9
$DIMBLK2
  1

  9
$DIMSTYLE
  2
Standard
  9
$DIMCLRD
 70
     0
  9
$DIMCLRE
 70
     0
  9
$DIMCLRT
 70
     0
  9
$DIMTFAC
 40
1.0
  9
$DIMGAP
 40
0.06
  9
$DIMJUST
 70
     0
  9
$DIMSD1
 70
     0
  9
$DIMSD2
 70
     0
  9
$DIMTOLJ
 70
     1
  9
$DIMTZIN
 70
     0
  9
$DIMALTZ
 70
     0
  9
$DIMALTTZ
 70
     0
  9
$DIMUPT
 70
     0
  9
$DIMDEC
 70
     3
  9
$DIMTDEC
 70
     2
  9
$DIMALTU
 70
     2
  9
$DIMALTTD
 70
     2
  9
$DIMTXSTY
  7
Standard
  9
$DIMAUNIT
 70
     0
  9
$DIMADEC
 70
     2
  9
$DIMALTRND
 40
0.0
  9
$DIMAZIN
 70
     0
  9
$DIMDSEP
 70
    46
  9
$DIMATFIT
 70
     3
  9
$DIMFRAC
 70
     0
  9
$DIMLDRBLK
  1

  9
$DIMLUNIT
 70
     2
  9
$DIMLWD
 70
    -2
  9
$DIMLWE
 70
    -2
  9
$DIMTMOVE
 70
     0
  9
$LUNITS
 70
     2
  9
$LUPREC
 70
     3
  9
$SKETCHINC
 40
0.1
  9
$FILLETRAD
 40
0.5
  9
$AUNITS
 70
     0
  9
$AUPREC
 70
     2
  9
$MENU
  1
.
  9
$ELEVATION
 40
0.0
  9
$PELEVATION
 40
0.0
  9
$THICKNESS
 40
0.0
  9
$LIMCHECK
 70
     0
  9
$CHAMFERA
 40
0.5
  9
$CHAMFERB
 40
0.5
  9
$CHAMFERC
 40
1.0
  9
$CHAMFERD
 40
0.0
  9
$SKPOLY
 70
     0
  9
$TDCREATE
 40
2456575.579278137
  9
$TDUCREATE
 40
2456575.78761147
  9
$TDUPDATE
 40
2456575.579279398
  9
$TDUUPDATE
 40
2456575.787612732
  9
$TDINDWG
 40
0.0000000116
  9
$TDUSRTIMER
 40
0.0000000116
  9
$USRTIMER
 70
     1
  9
$ANGBASE
 50
0.0
  9
$ANGDIR
 70
     0
  9
$PDMODE
 70
     0
  9
$PDSIZE
 40
-1.0
  9
$PLINEWID
 40
0.0
  9
$SPLFRAME
 70
     0
  9
$SPLINETYPE
 70
     6
  9
$SPLINESEGS
 70
     8
  9
$HANDSEED
  5
442
  9
$SURFTAB1
 70
     6
  9
$SURFTAB2
 70
     6
  9
$SURFTYPE
 70
     6
  9
$SURFU
 70
     6
  9
$SURFV
 70
     6
  9
$UCSBASE
  2

  9
$UCSNAME
  2

  9
$UCSORG
 10
0.0
 20
0.0
 30
0.0
  9
$UCSXDIR
 10
1.0
 20
0.0
 30
0.0
  9
$UCSYDIR
 10
0.0
 20
1.0
 30
0.0
  9
$UCSORTHOREF
  2

  9
$UCSORTHOVIEW
 70
     0
  9
$UCSORGTOP
 10
0.0
 20
0.0
 30
0.0
  9
$UCSORGBOTTOM
 10
0.0
 20
0.0
 30
0.0
  9
$UCSORGLEFT
 10
0.0
 20
0.0
 30
0.0
  9
$UCSORGRIGHT
 10
0.0
 20
0.0
 30
0.0
  9
$UCSORGFRONT
 10
0.0
 20
0.0
 30
0.0
  9
$UCSORGBACK
 10
0.0
 20
0.0
 30
0.0
  9
$PUCSBASE
  2

  9
$PUCSNAME
  2

  9
$PUCSORG
 10
0.0
 20
0.0
 30
0.0
  9
$PUCSXDIR
 10
1.0
 20
0.0
 30
0.0
  9
$PUCSYDIR
 10
0.0
 20
1.0
 30
0.0
  9
$PUCSORTHOREF
  2

  9
$PUCSORTHOVIEW
 70
     0
  9
$PUCSORGTOP
 10
0.0
 20
0.0
 30
0.0
  9
$PUCSORGBOTTOM
 10
0.0
 20
0.0
 30
0.0
  9
$PUCSORGLEFT
 10
0.0
 20
0.0
 30
0.0
  9
$PUCSORGRIGHT
 10
0.0
 20
0.0
 30
0.0
  9
$PUCSORGFRONT
 10
0.0
 20
0.0
 30
0.0
  9
$PUCSORGBACK
 10
0.0
 20
0.0
 30
0.0
  9
$USERI1
 70
     0
  9
$USERI2
 70
     0
  9
$USERI3
 70
     0
  9
$USERI4
 70
     0
  9
$USERI5
 70
     0
  9
$USERR1
 40
0.0
  9
$USERR2
 40
0.0
  9
$USERR3
 40
0.0
  9
$USERR4
 40
0.0
  9
$USERR5
 40
0.0
  9
$WORLDVIEW
 70
     1
  9
$SHADEDGE
 70
     3
  9
$SHADEDIF
 70
    70
  9
$TILEMODE
 70
     1
  9
$MAXACTVP
 70
    64
  9
$PINSBASE
 10
0.0
 20
0.0
 30
0.0
  9
$PLIMCHECK
 70
     0
  9
$PEXTMIN
 10
1.0000000000E+20
 20
1.0000000000E+20
 30
1.0000000000E+20
  9
$PEXTMAX
 10
-1.0000000000E+20
 20
-1.0000000000E+20
 30
-1.0000000000E+20
  9
$PLIMMIN
 10
0.0
 20
0.0
  9
$PLIMMAX
 10
12.0
 20
9.0
  9
$UNITMODE
 70
     0
  9
$VISRETAIN
 70
     1
  9
$PLINEGEN
 70
     0
  9
$PSLTSCALE
 70
     1
  9
$TREEDEPTH
 70
  3020
  9
$CMLSTYLE
  2
Standard
  9
$CMLJUST
 70
     0
  9
$CMLSCALE
 40
1.0
  9
$PROXYGRAPHICS
 70
     1
  9
$MEASUREMENT
 70
     0
  9
$CELWEIGHT
370
    -1
  9
$ENDCAPS
280
     0
  9
$JOINSTYLE
280
     0
  9
$LWDISPLAY
290
     1
  9
$INSUNITS
 70
     1
  9
$HYPERLINKBASE
  1

  9
$STYLESHEET
  1

  9
$XEDIT
290
     1
  9
$CEPSNTYPE
380
     0
  9
$PSTYLEMODE
290
     1
  9
$FINGERPRINTGUID
  2
{78AF1E38-7A5D-4F61-BAB4-6942B9382271}
  9
$VERSIONGUID
  2
{FAEB1C32-E019-11D5-929B-00C0DF256EC4}
  9
$EXTNAMES
290
     1
  9
$PSVPSCALE
 40
0.0
  9
$OLESTARTUP
290
     0
  9
$SORTENTS
280
   127
  9
$INDEXCTL
280
     0
  9
$HIDETEXT
280
     1
  9
$XCLIPFRAME
290
     0
  9
$HALOGAP
280
     0
  9
$OBSCOLOR
 70
   257
  9
$OBSLTYPE
280
     0
  9
$INTERSECTIONDISPLAY
280
     0
  9
$INTERSECTIONCOLOR
 70
   257
  9
$DIMASSOC
280
     2
  9
$PROJECTNAME
  1

  0
ENDSEC
  0
SECTION
  2
CLASSES
  0
CLASS
  1
ACDBDICTIONARYWDFLT
  2
AcDbDictionaryWithDefault
  3
ObjectDBX Classes
 90
        0
 91
        4
280
     0
281
     0
  0
CLASS
  1
VISUALSTYLE
  2
AcDbVisualStyle
  3
ObjectDBX Classes
 90
     4095
 91
        4
280
     0
281
     0
  0
CLASS
  1
MATERIAL
  2
AcDbMaterial
  3
ObjectDBX Classes
 90
     1153
 91
        4
280
     0
281
     0
  0
ENDSEC
  0
SECTION
  2
TABLES
  0
TABLE
  2
VPORT
  5
8
330
0
100
AcDbSymbolTable
 70
     1
  0
VPORT
  5
29
330
8
100
AcDbSymbolTableRecord
100
AcDbViewportTableRecord
  2
*Active
 70
     0
 10
0.0
 20
0.0
 11
1.0
 21
1.0
 12
62.5
 22
50.0
 13
0.0
 23
0.0
 14
0.5
 24
0.5
 15
0.5
 25
0.5
 16
0.0
 26
0.0
 36
1.0
 17
0.0
 27
0.0
 37
0.0
 40
100.0
 41
1.25
 42
50.0
 43
0.0
 44
0.0
 50
0.0
 51
0.0
 71
     0
 72
  2000
 73
     1
 74
     3
 75
     0
 76
     0
 77
     0
 78
     0
281
     0
 65
     1
110
0.0
120
0.0
130
0.0
111
1.0
121
0.0
131
0.0
112
0.0
122
1.0
132
0.0
 79
     0
146
0.0
  0
ENDTAB
  0
TABLE
  2
LTYPE
  5
5
330
0
100
AcDbSymbolTable
 70
     6
  0
LTYPE
  5
14
330
5
100
AcDbSymbolTableRecord
100
AcDbLinetypeTableRecord
  2
ByBlock
 70
     0
  3

 72
    65
 73
     0
 40
0.0
  0
LTYPE
  5
15
330
5
100
AcDbSymbolTableRecord
100
AcDbLinetypeTableRecord
  2
ByLayer
 70
     0
  3

 72
    65
 73
     0
 40
0.0
  0
LTYPE
  5
16
330
5
100
AcDbSymbolTableRecord
100
AcDbLinetypeTableRecord
  2
Continuous
 70
     0
  3
Solid line
 72
    65
 73
     0
 40
0.0
  0
LTYPE
  5
3F
330
5
100
AcDbSymbolTableRecord
100
AcDbLinetypeTableRecord
  2
HIDDEN
 70
     0
  3
Hidden __ __ __ __ __ __ __ __ __ __ __ __ __ __
 72
    65
 73
     2
 40
0.075
 49
0.05
 74
     0
 49
-0.025
 74
     0
  0
LTYPE
  5
40
330
5
100
AcDbSymbolTableRecord
100
AcDbLinetypeTableRecord
  2
PHANTOM
 70
     0
  3
Phantom ______  __  __  ______  __  __  ______
 72
    65
 73
     6
 40
0.5
 49
0.25
 74
     0
 49
-0.05
 74
     0
 49
0.05
 74
     0
 49
-0.05
 74
     0
 49
0.05
 74
     0
 49
-0.05
 74
     0
  0
LTYPE
  5
41
330
5
100
AcDbSymbolTableRecord
100
AcDbLinetypeTableRecord
  2
CENTER
 70
     0
  3
Center ____ _ ____ _ ____ _ ____ _ ____ _ ____
 72
    65
 73
     4
 40
0.4
 49
0.25
 74
     0
 49
-0.05
 74
     0
 49
0.05
 74
     0
 49
-0.05
 74
     0
  0
LTYPE
  5
42
330
5
100
AcDbSymbolTableRecord
100
AcDbLinetypeTableRecord
  2
CENTERX2
 70
     0
  3
Center (2x) ________  __  ________  __  _____
 72
    65
 73
     4
 40
0.8
 49
0.5
 74
     0
 49
-0.1
 74
     0
 49
0.1
 74
     0
 49
-0.1
 74
     0
  0
LTYPE
  5
43
330
5
100
AcDbSymbolTableRecord
100
AcDbLinetypeTableRecord
  2
DOT2
 70
     0
  3
Dot (.5x) ........................................
 72
    65
 73
     2
 40
0.025
 49
0.0
 74
     0
 49
-0.025
 74
     0
  0
ENDTAB
  0
TABLE
  2
LAYER
  5
2
330
0
100
AcDbSymbolTable
 70
     4
  0
LAYER
  5
10
330
2
100
AcDbSymbolTableRecord
100
AcDbLayerTableRecord
  2
0
 70
     0
 62
     7
  6
Continuous
370
    -3
390
F
  0
LAYER
  5
44
330
2
100
AcDbSymbolTableRecord
100
AcDbLayerTableRecord
  2
SLD-0
 70
     0
 62
     7
  6
Continuous
370
    -3
390
F
  0
LAYER
  5
45
330
2
100
AcDbSymbolTableRecord
100
AcDbLayerTableRecord
  2
NOTES
 70
     0
 62
     1
  6
Continuous
370
    -3
390
F
  0
LAYER
  5
46
330
2
100
AcDbSymbolTableRecord
100
AcDbLayerTableRecord
  2
DIM
 70
     0
 62
   100
  6
Continuous
370
    -3
390
F
  0
ENDTAB
  0
TABLE
  2
STYLE
  5
3
330
0
100
AcDbSymbolTable
 70
     2
  0
STYLE
  5
11
330
3
100
AcDbSymbolTableRecord
100
AcDbTextStyleTableRecord
  2
Standard
 70
     0
 40
0.0
 41
1.0
 50
0.0
 71
     0
 42
0.1388888889
  3
txt
  4

  0
STYLE
  5
47
330
3
100
AcDbSymbolTableRecord
100
AcDbTextStyleTableRecord
  2
SLDTEXTSTYLE0
 70
     0
 40
0.0
 41
0.75
 50
0.0
 71
     0
 42
0.2
  3
TXT
  4

  0
ENDTAB
  0
TABLE
  2
VIEW
  5
6
330
0
100
AcDbSymbolTable
 70
     0
  0
ENDTAB
  0
TABLE
  2
UCS
  5
7
330
0
100
AcDbSymbolTable
 70
     0
  0
ENDTAB
  0
TABLE
  2
APPID
  5
9
330
0
100
AcDbSymbolTable
 70
     1
  0
APPID
  5
12
330
9
100
AcDbSymbolTableRecord
100
AcDbRegAppTableRecord
  2
ACAD
 70
     0
  0
ENDTAB
  0
TABLE
  2
DIMSTYLE
  5
A
330
0
100
AcDbSymbolTable
 70
     3
100
AcDbDimStyleTable
  0
DIMSTYLE
105
27
330
A
100
AcDbSymbolTableRecord
100
AcDbDimStyleTableRecord
  2
Standard
 70
     0
178
     0
340
11
  0
DIMSTYLE
105
110
102
{ACAD_REACTORS
330
10F
330
11F
330
12E
330
13B
330
318
330
327
330
336
330
426
102
}
330
A
100
AcDbSymbolTableRecord
100
AcDbDimStyleTableRecord
  2
SLDDIMSTYLE0
 70
     0
 41
1.0
 44
0.0
 45
0.000000001
 78
    12
 79
     3
140
1.5
147
0.375
173
     1
178
     0
271
     3
272
     2
276
     2
277
     5
284
    12
340
47
  0
DIMSTYLE
105
30A
102
{ACAD_REACTORS
330
309
330
435
102
}
330
A
100
AcDbSymbolTableRecord
100
AcDbDimStyleTableRecord
  2
SLDDIMSTYLE1
 70
     0
 41
1.0
 44
0.0
 45
0.000000001
 78
    12
 79
     3
140
1.5
147
0.375
172
     1
173
     1
178
     0
271
     3
272
     2
276
     2
277
     5
284
    12
289
     0
340
47
  0
ENDTAB
  0
TABLE
  2
BLOCK_RECORD
  5
1
330
0
100
AcDbSymbolTable
 70
    11
  0
BLOCK_RECORD
  5
1F
330
1
100
AcDbSymbolTableRecord
100
AcDbBlockTableRecord
  2
*Model_Space
340
22
  0
BLOCK_RECORD
  5
1B
330
1
100
AcDbSymbolTableRecord
100
AcDbBlockTableRecord
  2
*Paper_Space
340
1E
  0
BLOCK_RECORD
  5
23
330
1
100
AcDbSymbolTableRecord
100
AcDbBlockTableRecord
  2
*Paper_Space0
340
26
  0
BLOCK_RECORD
  5
111
330
1
100
AcDbSymbolTableRecord
100
AcDbBlockTableRecord
  2
_D
340
0
  0
BLOCK_RECORD
  5
120
330
1
100
AcDbSymbolTableRecord
100
AcDbBlockTableRecord
  2
_D_1
340
0
  0
BLOCK_RECORD
  5
12F
330
1
100
AcDbSymbolTableRecord
100
AcDbBlockTableRecord
  2
_D_2
340
0
  0
BLOCK_RECORD
  5
13C
330
1
100
AcDbSymbolTableRecord
100
AcDbBlockTableRecord
  2
_D_3
340
0
  0
BLOCK_RECORD
  5
30B
330
1
100
AcDbSymbolTableRecord
100
AcDbBlockTableRecord
  2
_D_4
340
0
  0
BLOCK_RECORD
  5
319
330
1
100
AcDbSymbolTableRecord
100
AcDbBlockTableRecord
  2
_D_5
340
0
  0
BLOCK_RECORD
  5
328
330
1
100
AcDbSymbolTableRecord
100
AcDbBlockTableRecord
  2
_D_6
340
0
  0
BLOCK_RECORD
  5
337
330
1
100
AcDbSymbolTableRecord
100
AcDbBlockTableRecord
  2
_D_7
340
0
  0
BLOCK_RECORD
  5
427
330
1
100
AcDbSymbolTableRecord
100
AcDbBlockTableRecord
  2
_D_8
340
0
  0
BLOCK_RECORD
  5
436
330
1
100
AcDbSymbolTableRecord
100
AcDbBlockTableRecord
  2
_D_9
340
0
  0
ENDTAB
  0
ENDSEC
  0
SECTION
  2
BLOCKS
  0
BLOCK
  5
20
330
1F
100
AcDbEntity
  8
0
100
AcDbBlockBegin
  2
*Model_Space
 70
     0
 10
0.0
 20
0.0
 30
0.0
  3
*Model_Space
  1

  0
ENDBLK
  5
21
330
1F
100
AcDbEntity
  8
0
100
AcDbBlockEnd
  0
BLOCK
  5
1C
330
1B
100
AcDbEntity
 67
     1
  8
0
100
AcDbBlockBegin
  2
*Paper_Space
 70
     0
 10
0.0
 20
0.0
 30
0.0
  3
*Paper_Space
  1

  0
ENDBLK
  5
1D
330
1B
100
AcDbEntity
 67
     1
  8
0
100
AcDbBlockEnd
  0
BLOCK
  5
24
330
23
100
AcDbEntity
  8
0
100
AcDbBlockBegin
  2
*Paper_Space0
 70
     0
 10
0.0
 20
0.0
 30
0.0
  3
*Paper_Space0
  1

  0
ENDBLK
  5
25
330
23
100
AcDbEntity
  8
0
100
AcDbBlockEnd
  0
BLOCK
  5
112
330
111
100
AcDbEntity
  8
0
100
AcDbBlockBegin
  2
_D
 70
     0
 10
0.0
 20
0.0
 30
0.0
  3
_D
  1

  0
SOLID
  5
114
330
111
100
AcDbEntity
  8
DIM
100
AcDbTrace
 10
39.1679928525
 20
41.0835128568
 30
0.0
 11
38.9179928525
 21
40.0835128568
 31
0.0
 12
39.4179928525
 22
40.0835128568
 32
0.0
 13
39.4179928525
 23
40.0835128568
 33
0.0
  0
SOLID
  5
115
330
111
100
AcDbEntity
  8
DIM
100
AcDbTrace
 10
39.1679928525
 20
16.7051128568
 30
0.0
 11
39.4179928525
 21
17.7051128568
 31
0.0
 12
38.9179928525
 22
17.7051128568
 32
0.0
 13
38.9179928525
 23
17.7051128568
 33
0.0
  0
LINE
  5
116
330
111
100
AcDbEntity
  8
DIM
100
AcDbLine
 10
40.2575761868
 20
25.8662064765
 30
0.0
 11
38.4575761646
 21
22.8662064395
 31
0.0
  0
LINE
  5
117
330
111
100
AcDbEntity
  8
DIM
100
AcDbLine
 10
45.0663661037
 20
41.0835128568
 30
0.0
 11
39.1286227737
 21
41.0835128568
 31
0.0
  0
LINE
  5
118
330
111
100
AcDbEntity
  8
DIM
100
AcDbLine
 10
45.0663661037
 20
16.7051128568
 30
0.0
 11
39.1286227737
 21
16.7051128568
 31
0.0
  0
LINE
  5
119
330
111
100
AcDbEntity
  8
DIM
100
AcDbLine
 10
39.1679928525
 20
41.0835128568
 30
0.0
 11
39.1679928525
 21
26.3057898518
 31
0.0
  0
LINE
  5
11A
330
111
100
AcDbEntity
  8
DIM
100
AcDbLine
 10
39.1679928525
 20
16.7051128568
 30
0.0
 11
39.1679928525
 21
22.4266230642
 31
0.0
  0
MTEXT
  5
11B
330
111
100
AcDbEntity
  8
DIM
100
AcDbMText
 10
36.0325761664
 20
25.2258498475
 30
-10.6624385613
 40
1.5
 41
0.0
 71
     1
 72
     1
  1
24
  7
SLDTEXTSTYLE0
 73
     1
 44
1.0
  0
MTEXT
  5
11C
330
111
100
AcDbEntity
  8
DIM
100
AcDbMText
 10
38.2492428393
 20
26.2998081043
 30
-10.6624385613
 40
1.5
 41
0.0
 71
     1
 72
     1
  1
3
  7
SLDTEXTSTYLE0
 73
     1
 44
1.0
  0
MTEXT
  5
11D
330
111
100
AcDbEntity
  8
DIM
100
AcDbMText
 10
39.3575761757
 20
24.3602247106
 30
-10.6624385613
 40
1.5
 41
0.0
 71
     1
 72
     1
  1
8
  7
SLDTEXTSTYLE0
 73
     1
 44
1.0
  0
MTEXT
  5
11E
330
111
100
AcDbEntity
  8
DIM
100
AcDbMText
 10
40.4659095122
 20
25.2258498475
 30
-10.6624385613
 40
1.5
 41
0.0
 71
     1
 72
     1
  1
"
  7
SLDTEXTSTYLE0
 73
     1
 44
1.0
  0
ENDBLK
  5
113
330
111
100
AcDbEntity
  8
0
100
AcDbBlockEnd
  0
BLOCK
  5
121
330
120
100
AcDbEntity
  8
0
100
AcDbBlockBegin
  2
_D_1
 70
     0
 10
0.0
 20
0.0
 30
0.0
  3
_D_1
  1

  0
SOLID
  5
123
330
120
100
AcDbEntity
  8
DIM
100
AcDbTrace
 10
34.6679928525
 20
10.6441128568
 30
0.0
 11
34.9179928525
 21
11.6441128568
 31
0.0
 12
34.4179928525
 22
11.6441128568
 32
0.0
 13
34.4179928525
 23
11.6441128568
 33
0.0
  0
SOLID
  5
124
330
120
100
AcDbEntity
  8
DIM
100
AcDbTrace
 10
34.6679928525
 20
48.326043334
 30
0.0
 11
34.4179928525
 21
47.326043334
 31
0.0
 12
34.9179928525
 22
47.326043334
 32
0.0
 13
34.9179928525
 23
47.326043334
 33
0.0
  0
LINE
  5
125
330
120
100
AcDbEntity
  8
DIM
100
AcDbLine
 10
35.7575761135
 20
30.9850781139
 30
0.0
 11
33.9575760913
 21
27.9850780768
 31
0.0
  0
LINE
  5
126
330
120
100
AcDbEntity
  8
DIM
100
AcDbLine
 10
43.6181788021
 20
10.6441128568
 30
0.0
 11
34.6286227737
 21
10.6441128568
 31
0.0
  0
LINE
  5
127
330
120
100
AcDbEntity
  8
DIM
100
AcDbLine
 10
52.8091944267
 20
48.326043334
 30
0.0
 11
34.6286227737
 21
48.326043334
 31
0.0
  0
LINE
  5
128
330
120
100
AcDbEntity
  8
DIM
100
AcDbLine
 10
34.6679928525
 20
10.6441128568
 30
0.0
 11
34.6679928525
 21
27.5454947016
 31
0.0
  0
LINE
  5
129
330
120
100
AcDbEntity
  8
DIM
100
AcDbLine
 10
34.6679928525
 20
48.326043334
 30
0.0
 11
34.6679928525
 21
31.4246614892
 31
0.0
  0
MTEXT
  5
12A
330
120
100
AcDbEntity
  8
DIM
100
AcDbMText
 10
30.4242427566
 20
30.3447214848
 30
-10.6624385613
 40
1.5
 41
0.0
 71
     1
 72
     1
  1
37
  7
SLDTEXTSTYLE0
 73
     1
 44
1.0
  0
MTEXT
  5
12B
330
120
100
AcDbEntity
  8
DIM
100
AcDbMText
 10
32.6409094295
 20
31.4186797417
 30
-10.6624385613
 40
1.5
 41
0.0
 71
     1
 72
     1
  1
11
  7
SLDTEXTSTYLE0
 73
     1
 44
1.0
  0
MTEXT
  5
12C
330
120
100
AcDbEntity
  8
DIM
100
AcDbMText
 10
34.8575761024
 20
29.4790963479
 30
-10.6624385613
 40
1.5
 41
0.0
 71
     1
 72
     1
  1
16
  7
SLDTEXTSTYLE0
 73
     1
 44
1.0
  0
MTEXT
  5
12D
330
120
100
AcDbEntity
  8
DIM
100
AcDbMText
 10
37.0742426286
 20
30.3447214848
 30
-10.6624385613
 40
1.5
 41
0.0
 71
     1
 72
     1
  1
"
  7
SLDTEXTSTYLE0
 73
     1
 44
1.0
  0
ENDBLK
  5
122
330
120
100
AcDbEntity
  8
0
100
AcDbBlockEnd
  0
BLOCK
  5
130
330
12F
100
AcDbEntity
  8
0
100
AcDbBlockBegin
  2
_D_2
 70
     0
 10
0.0
 20
0.0
 30
0.0
  3
_D_2
  1

  0
SOLID
  5
132
330
12F
100
AcDbEntity
  8
DIM
100
AcDbTrace
 10
45.1057361825
 20
29.4850780954
 30
0.0
 11
46.1057361825
 21
29.2350780954
 31
0.0
 12
46.1057361825
 22
29.7350780954
 32
0.0
 13
46.1057361825
 23
29.7350780954
 33
0.0
  0
SOLID
  5
133
330
12F
100
AcDbEntity
  8
DIM
100
AcDbTrace
 10
81.2349361825
 20
29.4850780954
 30
0.0
 11
80.2349361825
 21
29.7350780954
 31
0.0
 12
80.2349361825
 22
29.2350780954
 32
0.0
 13
80.2349361825
 23
29.2350780954
 33
0.0
  0
LINE
  5
134
330
12F
100
AcDbEntity
  8
DIM
100
AcDbLine
 10
64.002509449
 20
30.9850781139
 30
0.0
 11
62.2025094267
 21
27.9850780768
 31
0.0
  0
LINE
  5
135
330
12F
100
AcDbEntity
  8
DIM
100
AcDbLine
 10
45.1057361825
 20
29.4850780954
 30
0.0
 11
59.7775094285
 21
29.4850780954
 31
0.0
  0
LINE
  5
136
330
12F
100
AcDbEntity
  8
DIM
100
AcDbLine
 10
81.2349361825
 20
29.4850780954
 30
0.0
 11
66.0483428007
 21
29.4850780954
 31
0.0
  0
MTEXT
  5
137
330
12F
100
AcDbEntity
  8
DIM
100
AcDbMText
 10
59.7775094285
 20
30.3447214848
 30
-10.6624385613
 40
1.5
 41
0.0
 71
     1
 72
     1
  1
36
  7
SLDTEXTSTYLE0
 73
     1
 44
1.0
  0
MTEXT
  5
138
330
12F
100
AcDbEntity
  8
DIM
100
AcDbMText
 10
61.9941761014
 20
31.4186797417
 30
-10.6624385613
 40
1.5
 41
0.0
 71
     1
 72
     1
  1
1
  7
SLDTEXTSTYLE0
 73
     1
 44
1.0
  0
MTEXT
  5
139
330
12F
100
AcDbEntity
  8
DIM
100
AcDbMText
 10
63.1025094379
 20
29.4790963479
 30
-10.6624385613
 40
1.5
 41
0.0
 71
     1
 72
     1
  1
8
  7
SLDTEXTSTYLE0
 73
     1
 44
1.0
  0
MTEXT
  5
13A
330
12F
100
AcDbEntity
  8
DIM
100
AcDbMText
 10
64.2108427743
 20
30.3447214848
 30
-10.6624385613
 40
1.5
 41
0.0
 71
     1
 72
     1
  1
"
  7
SLDTEXTSTYLE0
 73
     1
 44
1.0
  0
ENDBLK
  5
131
330
12F
100
AcDbEntity
  8
0
100
AcDbBlockEnd
  0
BLOCK
  5
13D
330
13C
100
AcDbEntity
  8
0
100
AcDbBlockBegin
  2
_D_3
 70
     0
 10
0.0
 20
0.0
 30
0.0
  3
_D_3
  1

  0
SOLID
  5
13F
330
13C
100
AcDbEntity
  8
DIM
100
AcDbTrace
 10
82.7478361825
 20
7.1441128568
 30
0.0
 11
81.7478361825
 21
7.3941128568
 31
0.0
 12
81.7478361825
 22
6.8941128568
 32
0.0
 13
81.7478361825
 23
6.8941128568
 33
0.0
  0
SOLID
  5
140
330
13C
100
AcDbEntity
  8
DIM
100
AcDbTrace
 10
43.5928361825
 20
7.1441128568
 30
0.0
 11
44.5928361825
 21
6.8941128568
 31
0.0
 12
44.5928361825
 22
7.3941128568
 32
0.0
 13
44.5928361825
 23
7.3941128568
 33
0.0
  0
LINE
  5
141
330
13C
100
AcDbEntity
  8
DIM
100
AcDbLine
 10
64.2599195168
 20
8.6441128753
 30
0.0
 11
62.4599194946
 21
5.6441128383
 31
0.0
  0
LINE
  5
142
330
13C
100
AcDbEntity
  8
DIM
100
AcDbLine
 10
82.7478361825
 20
11.1731798506
 30
0.0
 11
82.7478361825
 21
7.1047427781
 31
0.0
  0
LINE
  5
143
330
13C
100
AcDbEntity
  8
DIM
100
AcDbLine
 10
43.5928361825
 20
11.1731798506
 30
0.0
 11
43.5928361825
 21
7.1047427781
 31
0.0
  0
LINE
  5
144
330
13C
100
AcDbEntity
  8
DIM
100
AcDbLine
 10
82.7478361825
 20
7.1441128568
 30
0.0
 11
66.3057528685
 21
7.1441128568
 31
0.0
  0
LINE
  5
145
330
13C
100
AcDbEntity
  8
DIM
100
AcDbLine
 10
43.5928361825
 20
7.1441128568
 30
0.0
 11
60.0349194964
 21
7.1441128568
 31
0.0
  0
MTEXT
  5
146
330
13C
100
AcDbEntity
  8
DIM
100
AcDbMText
 10
60.0349194964
 20
8.0037562462
 30
-10.6624385613
 40
1.5
 41
0.0
 71
     1
 72
     1
  1
39
  7
SLDTEXTSTYLE0
 73
     1
 44
1.0
  0
MTEXT
  5
147
330
13C
100
AcDbEntity
  8
DIM
100
AcDbMText
 10
62.2515861693
 20
9.0777145031
 30
-10.6624385613
 40
1.5
 41
0.0
 71
     1
 72
     1
  1
1
  7
SLDTEXTSTYLE0
 73
     1
 44
1.0
  0
MTEXT
  5
148
330
13C
100
AcDbEntity
  8
DIM
100
AcDbMText
 10
63.3599195057
 20
7.1381311094
 30
-10.6624385613
 40
1.5
 41
0.0
 71
     1
 72
     1
  1
8
  7
SLDTEXTSTYLE0
 73
     1
 44
1.0
  0
MTEXT
  5
149
330
13C
100
AcDbEntity
  8
DIM
100
AcDbMText
 10
64.4682528422
 20
8.0037562462
 30
-10.6624385613
 40
1.5
 41
0.0
 71
     1
 72
     1
  1
"
  7
SLDTEXTSTYLE0
 73
     1
 44
1.0
  0
ENDBLK
  5
13E
330
13C
100
AcDbEntity
  8
0
100
AcDbBlockEnd
  0
BLOCK
  5
30C
330
30B
100
AcDbEntity
  8
0
100
AcDbBlockBegin
  2
_D_4
 70
     0
 10
0.0
 20
0.0
 30
0.0
  3
_D_4
  1

  0
SOLID
  5
30E
330
30B
100
AcDbEntity
  8
DIM
100
AcDbTrace
 10
43.5928361825
 20
66.1812504557
 30
0.0
 11
44.5928361825
 21
65.9312504557
 31
0.0
 12
44.5928361825
 22
66.4312504557
 32
0.0
 13
44.5928361825
 23
66.4312504557
 33
0.0
  0
SOLID
  5
30F
330
30B
100
AcDbEntity
  8
DIM
100
AcDbTrace
 10
42.6662211754
 20
66.1812504557
 30
0.0
 11
41.6662211754
 21
66.4312504557
 31
0.0
 12
41.6662211754
 22
65.9312504557
 32
0.0
 13
41.6662211754
 23
65.9312504557
 33
0.0
  0
LINE
  5
310
330
30B
100
AcDbEntity
  8
DIM
100
AcDbLine
 10
37.5734762649
 20
67.6812504742
 30
0.0
 11
35.7734762427
 21
64.6812504371
 31
0.0
  0
LINE
  5
311
330
30B
100
AcDbEntity
  8
DIM
100
AcDbLine
 10
43.5928361825
 20
72.3305206119
 30
0.0
 11
43.5928361825
 21
66.1418803769
 31
0.0
  0
LINE
  5
312
330
30B
100
AcDbEntity
  8
DIM
100
AcDbLine
 10
42.6662211754
 20
73.0492956119
 30
0.0
 11
42.6662211754
 21
66.1418803769
 31
0.0
  0
LINE
  5
313
330
30B
100
AcDbEntity
  8
DIM
100
AcDbLine
 10
43.5928361825
 20
66.1812504557
 30
0.0
 11
45.0928361825
 21
66.1812504557
 31
0.0
  0
LINE
  5
314
330
30B
100
AcDbEntity
  8
DIM
100
AcDbLine
 10
42.6662211754
 20
66.1812504557
 30
0.0
 11
40.727642953
 21
66.1812504557
 31
0.0
  0
MTEXT
  5
315
330
30B
100
AcDbEntity
  8
DIM
100
AcDbMText
 10
34.4568095809
 20
68.114852102
 30
-17.7920282307
 40
1.5
 41
0.0
 71
     1
 72
     1
  1
15
  7
SLDTEXTSTYLE0
 73
     1
 44
1.0
  0
MTEXT
  5
316
330
30B
100
AcDbEntity
  8
DIM
100
AcDbMText
 10
36.6734762538
 20
66.1752687082
 30
-17.7920282307
 40
1.5
 41
0.0
 71
     1
 72
     1
  1
16
  7
SLDTEXTSTYLE0
 73
     1
 44
1.0
  0
MTEXT
  5
317
330
30B
100
AcDbEntity
  8
DIM
100
AcDbMText
 10
38.8901429267
 20
67.0408938451
 30
-17.7920282307
 40
1.5
 41
0.0
 71
     1
 72
     1
  1
"
  7
SLDTEXTSTYLE0
 73
     1
 44
1.0
  0
ENDBLK
  5
30D
330
30B
100
AcDbEntity
  8
0
100
AcDbBlockEnd
  0
BLOCK
  5
31A
330
319
100
AcDbEntity
  8
0
100
AcDbBlockBegin
  2
_D_5
 70
     0
 10
0.0
 20
0.0
 30
0.0
  3
_D_5
  1

  0
SOLID
  5
31C
330
319
100
AcDbEntity
  8
DIM
100
AcDbTrace
 10
43.5928361825
 20
66.1812504557
 30
0.0
 11
44.5928361825
 21
65.9312504557
 31
0.0
 12
44.5928361825
 22
66.4312504557
 32
0.0
 13
44.5928361825
 23
66.4312504557
 33
0.0
  0
SOLID
  5
31D
330
319
100
AcDbEntity
  8
DIM
100
AcDbTrace
 10
82.7478361825
 20
66.1812504557
 30
0.0
 11
81.7478361825
 21
66.4312504557
 31
0.0
 12
81.7478361825
 22
65.9312504557
 32
0.0
 13
81.7478361825
 23
65.9312504557
 33
0.0
  0
LINE
  5
31E
330
319
100
AcDbEntity
  8
DIM
100
AcDbLine
 10
64.3273617451
 20
67.6812504742
 30
0.0
 11
62.5273617229
 21
64.6812504371
 31
0.0
  0
LINE
  5
31F
330
319
100
AcDbEntity
  8
DIM
100
AcDbLine
 10
43.5928361825
 20
72.3305206119
 30
0.0
 11
43.5928361825
 21
66.1418803769
 31
0.0
  0
LINE
  5
320
330
319
100
AcDbEntity
  8
DIM
100
AcDbLine
 10
82.7478361825
 20
72.3305206119
 30
0.0
 11
82.7478361825
 21
66.1418803769
 31
0.0
  0
LINE
  5
321
330
319
100
AcDbEntity
  8
DIM
100
AcDbLine
 10
43.5928361825
 20
66.1812504557
 30
0.0
 11
60.1023617247
 21
66.1812504557
 31
0.0
  0
LINE
  5
322
330
319
100
AcDbEntity
  8
DIM
100
AcDbLine
 10
82.7478361825
 20
66.1812504557
 30
0.0
 11
66.3731950968
 21
66.1812504557
 31
0.0
  0
MTEXT
  5
323
330
319
100
AcDbEntity
  8
DIM
100
AcDbMText
 10
60.1023617247
 20
67.0408938451
 30
-17.7920282307
 40
1.5
 41
0.0
 71
     1
 72
     1
  1
39
  7
SLDTEXTSTYLE0
 73
     1
 44
1.0
  0
MTEXT
  5
324
330
319
100
AcDbEntity
  8
DIM
100
AcDbMText
 10
62.3190283975
 20
68.114852102
 30
-17.7920282307
 40
1.5
 41
0.0
 71
     1
 72
     1
  1
1
  7
SLDTEXTSTYLE0
 73
     1
 44
1.0
  0
MTEXT
  5
325
330
319
100
AcDbEntity
  8
DIM
100
AcDbMText
 10
63.427361734
 20
66.1752687082
 30
-17.7920282307
 40
1.5
 41
0.0
 71
     1
 72
     1
  1
8
  7
SLDTEXTSTYLE0
 73
     1
 44
1.0
  0
MTEXT
  5
326
330
319
100
AcDbEntity
  8
DIM
100
AcDbMText
 10
64.5356950704
 20
67.0408938451
 30
-17.7920282307
 40
1.5
 41
0.0
 71
     1
 72
     1
  1
"
  7
SLDTEXTSTYLE0
 73
     1
 44
1.0
  0
ENDBLK
  5
31B
330
319
100
AcDbEntity
  8
0
100
AcDbBlockEnd
  0
BLOCK
  5
329
330
328
100
AcDbEntity
  8
0
100
AcDbBlockBegin
  2
_D_6
 70
     0
 10
0.0
 20
0.0
 30
0.0
  3
_D_6
  1

  0
SOLID
  5
32B
330
328
100
AcDbEntity
  8
DIM
100
AcDbTrace
 10
47.0985645054
 20
95.7165797872
 30
0.0
 11
48.0985645054
 21
95.4665797872
 31
0.0
 12
48.0985645054
 22
95.9665797872
 32
0.0
 13
48.0985645054
 23
95.9665797872
 33
0.0
  0
SOLID
  5
32C
330
328
100
AcDbEntity
  8
DIM
100
AcDbTrace
 10
79.2385645054
 20
95.7165797872
 30
0.0
 11
78.2385645054
 21
95.9665797872
 31
0.0
 12
78.2385645054
 22
95.4665797872
 32
0.0
 13
78.2385645054
 23
95.4665797872
 33
0.0
  0
LINE
  5
32D
330
328
100
AcDbEntity
  8
DIM
100
AcDbLine
 10
63.5601739705
 20
97.2165798058
 30
0.0
 11
61.7601739482
 21
94.2165797687
 31
0.0
  0
LINE
  5
32E
330
328
100
AcDbEntity
  8
DIM
100
AcDbLine
 10
47.0985645054
 20
91.5296607693
 30
0.0
 11
47.0985645054
 21
95.755949866
 31
0.0
  0
LINE
  5
32F
330
328
100
AcDbEntity
  8
DIM
100
AcDbLine
 10
79.2385645054
 20
91.5296607693
 30
0.0
 11
79.2385645054
 21
95.755949866
 31
0.0
  0
LINE
  5
330
330
328
100
AcDbEntity
  8
DIM
100
AcDbLine
 10
47.0985645054
 20
95.7165797872
 30
0.0
 11
59.33517395
 21
95.7165797872
 31
0.0
  0
LINE
  5
331
330
328
100
AcDbEntity
  8
DIM
100
AcDbLine
 10
79.2385645054
 20
95.7165797872
 30
0.0
 11
65.6060073222
 21
95.7165797872
 31
0.0
  0
MTEXT
  5
332
330
328
100
AcDbEntity
  8
DIM
100
AcDbMText
 10
59.33517395
 20
96.5762231767
 30
-17.7920282307
 40
1.5
 41
0.0
 71
     1
 72
     1
  1
32
  7
SLDTEXTSTYLE0
 73
     1
 44
1.0
  0
MTEXT
  5
333
330
328
100
AcDbEntity
  8
DIM
100
AcDbMText
 10
61.5518406229
 20
97.6501814336
 30
-17.7920282307
 40
1.5
 41
0.0
 71
     1
 72
     1
  1
1
  7
SLDTEXTSTYLE0
 73
     1
 44
1.0
  0
MTEXT
  5
334
330
328
100
AcDbEntity
  8
DIM
100
AcDbMText
 10
62.6601739593
 20
95.7105980398
 30
-17.7920282307
 40
1.5
 41
0.0
 71
     1
 72
     1
  1
8
  7
SLDTEXTSTYLE0
 73
     1
 44
1.0
  0
MTEXT
  5
335
330
328
100
AcDbEntity
  8
DIM
100
AcDbMText
 10
63.7685072958
 20
96.5762231767
 30
-17.7920282307
 40
1.5
 41
0.0
 71
     1
 72
     1
  1
"
  7
SLDTEXTSTYLE0
 73
     1
 44
1.0
  0
ENDBLK
  5
32A
330
328
100
AcDbEntity
  8
0
100
AcDbBlockEnd
  0
BLOCK
  5
338
330
337
100
AcDbEntity
  8
0
100
AcDbBlockBegin
  2
_D_7
 70
     0
 10
0.0
 20
0.0
 30
0.0
  3
_D_7
  1

  0
SOLID
  5
33A
330
337
100
AcDbEntity
  8
DIM
100
AcDbTrace
 10
39.1679928525
 20
72.3052906906
 30
0.0
 11
39.4179928525
 21
73.3052906906
 31
0.0
 12
38.9179928525
 22
73.3052906906
 32
0.0
 13
38.9179928525
 23
73.3052906906
 33
0.0
  0
SOLID
  5
33B
330
337
100
AcDbEntity
  8
DIM
100
AcDbTrace
 10
39.1679928525
 20
91.5429906906
 30
0.0
 11
38.9179928525
 21
90.5429906906
 31
0.0
 12
39.4179928525
 22
90.5429906906
 32
0.0
 13
39.4179928525
 23
90.5429906906
 33
0.0
  0
LINE
  5
33C
330
337
100
AcDbEntity
  8
DIM
100
AcDbLine
 10
40.2575761868
 20
85.2818222889
 30
0.0
 11
38.4575761646
 21
82.2818222518
 31
0.0
  0
LINE
  5
33D
330
337
100
AcDbEntity
  8
DIM
100
AcDbLine
 10
43.6181788021
 20
72.3052906906
 30
0.0
 11
39.1286227737
 21
72.3052906906
 31
0.0
  0
LINE
  5
33E
330
337
100
AcDbEntity
  8
DIM
100
AcDbLine
 10
47.07188923
 20
91.5429906906
 30
0.0
 11
39.1286227737
 21
91.5429906906
 31
0.0
  0
LINE
  5
33F
330
337
100
AcDbEntity
  8
DIM
100
AcDbLine
 10
39.1679928525
 20
72.3052906906
 30
0.0
 11
39.1679928525
 21
81.8422388766
 31
0.0
  0
LINE
  5
340
330
337
100
AcDbEntity
  8
DIM
100
AcDbLine
 10
39.1679928525
 20
91.5429906906
 30
0.0
 11
39.1679928525
 21
85.7214056641
 31
0.0
  0
MTEXT
  5
341
330
337
100
AcDbEntity
  8
DIM
100
AcDbMText
 10
36.0325761664
 20
84.6414656598
 30
-17.7920282307
 40
1.5
 41
0.0
 71
     1
 72
     1
  1
19
  7
SLDTEXTSTYLE0
 73
     1
 44
1.0
  0
MTEXT
  5
342
330
337
100
AcDbEntity
  8
DIM
100
AcDbMText
 10
38.2492428393
 20
85.7154239167
 30
-17.7920282307
 40
1.5
 41
0.0
 71
     1
 72
     1
  1
1
  7
SLDTEXTSTYLE0
 73
     1
 44
1.0
  0
MTEXT
  5
343
330
337
100
AcDbEntity
  8
DIM
100
AcDbMText
 10
39.3575761757
 20
83.7758405229
 30
-17.7920282307
 40
1.5
 41
0.0
 71
     1
 72
     1
  1
4
  7
SLDTEXTSTYLE0
 73
     1
 44
1.0
  0
MTEXT
  5
344
330
337
100
AcDbEntity
  8
DIM
100
AcDbMText
 10
40.4659095122
 20
84.6414656598
 30
-17.7920282307
 40
1.5
 41
0.0
 71
     1
 72
     1
  1
"
  7
SLDTEXTSTYLE0
 73
     1
 44
1.0
  0
ENDBLK
  5
339
330
337
100
AcDbEntity
  8
0
100
AcDbBlockEnd
  0
BLOCK
  5
428
330
427
100
AcDbEntity
  8
0
100
AcDbBlockBegin
  2
_D_8
 70
     0
 10
0.0
 20
0.0
 30
0.0
  3
_D_8
  1

  0
SOLID
  5
42A
330
427
100
AcDbEntity
  8
DIM
100
AcDbTrace
 10
93.8590730915
 20
45.4141128568
 30
0.0
 11
93.6090730915
 21
44.4141128568
 31
0.0
 12
94.1090730915
 22
44.4141128568
 32
0.0
 13
94.1090730915
 23
44.4141128568
 33
0.0
  0
SOLID
  5
42B
330
427
100
AcDbEntity
  8
DIM
100
AcDbTrace
 10
93.8590730915
 20
10.6441128568
 30
0.0
 11
94.1090730915
 21
11.6441128568
 31
0.0
 12
93.6090730915
 22
11.6441128568
 32
0.0
 13
93.6090730915
 23
11.6441128568
 33
0.0
  0
LINE
  5
42C
330
427
100
AcDbEntity
  8
DIM
100
AcDbLine
 10
94.9486564259
 20
29.5291128753
 30
0.0
 11
93.1486564036
 21
26.5291128383
 31
0.0
  0
LINE
  5
42D
330
427
100
AcDbEntity
  8
DIM
100
AcDbLine
 10
100.0083432477
 20
45.4141128568
 30
0.0
 11
93.8197030127
 21
45.4141128568
 31
0.0
  0
LINE
  5
42E
330
427
100
AcDbEntity
  8
DIM
100
AcDbLine
 10
100.0083432477
 20
10.6441128568
 30
0.0
 11
93.8197030127
 21
10.6441128568
 31
0.0
  0
LINE
  5
42F
330
427
100
AcDbEntity
  8
DIM
100
AcDbLine
 10
93.8590730915
 20
45.4141128568
 30
0.0
 11
93.8590730915
 21
29.9686962506
 31
0.0
  0
LINE
  5
430
330
427
100
AcDbEntity
  8
DIM
100
AcDbLine
 10
93.8590730915
 20
10.6441128568
 30
0.0
 11
93.8590730915
 21
26.089529463
 31
0.0
  0
MTEXT
  5
431
330
427
100
AcDbEntity
  8
DIM
100
AcDbMText
 10
90.7236564054
 20
28.8887562462
 30
0.0017297822
 40
1.5
 41
0.0
 71
     1
 72
     1
  1
34
  7
SLDTEXTSTYLE0
 73
     1
 44
1.0
  0
MTEXT
  5
432
330
427
100
AcDbEntity
  8
DIM
100
AcDbMText
 10
92.9403230783
 20
29.9627145031
 30
0.0017297822
 40
1.5
 41
0.0
 71
     1
 72
     1
  1
3
  7
SLDTEXTSTYLE0
 73
     1
 44
1.0
  0
MTEXT
  5
433
330
427
100
AcDbEntity
  8
DIM
100
AcDbMText
 10
94.0486564147
 20
28.0231311094
 30
0.0017297822
 40
1.5
 41
0.0
 71
     1
 72
     1
  1
4
  7
SLDTEXTSTYLE0
 73
     1
 44
1.0
  0
MTEXT
  5
434
330
427
100
AcDbEntity
  8
DIM
100
AcDbMText
 10
95.1569897512
 20
28.8887562462
 30
0.0017297822
 40
1.5
 41
0.0
 71
     1
 72
     1
  1
"
  7
SLDTEXTSTYLE0
 73
     1
 44
1.0
  0
ENDBLK
  5
429
330
427
100
AcDbEntity
  8
0
100
AcDbBlockEnd
  0
BLOCK
  5
437
330
436
100
AcDbEntity
  8
0
100
AcDbBlockBegin
  2
_D_9
 70
     0
 10
0.0
 20
0.0
 30
0.0
  3
_D_9
  1

  0
SOLID
  5
439
330
436
100
AcDbEntity
  8
DIM
100
AcDbTrace
 10
123.3944024231
 20
45.3108128568
 30
0.0
 11
123.1444024231
 21
44.3108128568
 31
0.0
 12
123.6444024231
 22
44.3108128568
 32
0.0
 13
123.6444024231
 23
44.3108128568
 33
0.0
  0
SOLID
  5
43A
330
436
100
AcDbEntity
  8
DIM
100
AcDbTrace
 10
123.3944024231
 20
48.326043334
 30
0.0
 11
123.6444024231
 21
49.326043334
 31
0.0
 12
123.1444024231
 22
49.326043334
 32
0.0
 13
123.1444024231
 23
49.326043334
 33
0.0
  0
LINE
  5
43B
330
436
100
AcDbEntity
  8
DIM
100
AcDbLine
 10
118.2184756641
 20
45.3108128568
 30
0.0
 11
123.4337725018
 21
45.3108128568
 31
0.0
  0
LINE
  5
43C
330
436
100
AcDbEntity
  8
DIM
100
AcDbLine
 10
117.6228834052
 20
48.326043334
 30
0.0
 11
123.4337725018
 21
48.326043334
 31
0.0
  0
LINE
  5
43D
330
436
100
AcDbEntity
  8
DIM
100
AcDbLine
 10
123.3944024231
 20
45.3108128568
 30
0.0
 11
123.3944024231
 21
43.8108128568
 31
0.0
  0
LINE
  5
43E
330
436
100
AcDbEntity
  8
DIM
100
AcDbLine
 10
123.3944024231
 20
48.326043334
 30
0.0
 11
123.3944024231
 21
49.826043334
 31
0.0
  0
MTEXT
  5
43F
330
436
100
AcDbEntity
  8
DIM
100
AcDbMText
 10
121.921485705
 20
47.4695216594
 30
0.0017297822
 40
1.5
 41
0.0
 71
     1
 72
     1
  1
3"
  7
SLDTEXTSTYLE0
 73
     1
 44
1.0
  0
ENDBLK
  5
438
330
436
100
AcDbEntity
  8
0
100
AcDbBlockEnd
  0
ENDSEC
  0
SECTION
  2
ENTITIES
  0
MTEXT
  5
48
330
1F
100
AcDbEntity
  8
NOTES
100
AcDbMText
 10
2.9351145038
 20
96.8764300319
 30
0.0
 40
2.0
 41
0.0
 71
     1
 72
     1
  1
OP36FB2MF
  7
SLDTEXTSTYLE0
 73
     1
 44
1.0
  0
LINE
  5
49
330
1F
100
AcDbEntity
  8
SLD-0
  6
Continuous
370
    15
100
AcDbLine
 10
45.3051990954
 20
38.7638609937
 30
0.0
 11
81.0354732695
 21
38.7638609937
 31
0.0
  0
SPLINE
  5
4A
330
1F
100
AcDbEntity
  8
SLD-0
  6
Continuous
370
    15
100
AcDbSpline
210
0.0
220
0.0
230
1.0
 70
     8
 71
     3
 72
    11
 73
     7
 74
     0
 42
0.00000001
 43
0.00000001
 12
1.0
 22
0.0
 32
0.0
 13
1.0
 23
0.0
 33
0.0
 40
0.0
 40
0.0
 40
0.0
 40
0.0
 40
0.2499963970259453
 40
0.4999937484312557
 40
0.749995454313165
 40
1.0
 40
1.0
 40
1.0
 40
1.0
 10
43.65743573048863
 20
11.14643826915673
 30
0.0
 10
43.64897103018884
 20
11.15194756326694
 30
0.0
 10
43.63204159727464
 20
11.16296617251951
 30
0.0
 10
43.61068788461066
 20
11.17949427330312
 30
0.0
 10
43.59574935207852
 20
11.19602207336456
 30
0.0
 10
43.5938072966454
 20
11.20704062054758
 30
0.0
 10
43.59283626341385
 20
11.21254992542923
 30
0.0
  0
LINE
  5
4B
330
1F
100
AcDbEntity
  8
SLD-0
  6
Continuous
370
    15
100
AcDbLine
 10
43.5928362634
 20
44.845674896
 30
0.0
 11
43.5928362634
 21
11.2125499254
 31
0.0
  0
SPLINE
  5
4C
330
1F
100
AcDbEntity
  8
SLD-0
  6
Continuous
370
    15
100
AcDbSpline
210
0.0
220
0.0
230
1.0
 70
     8
 71
     3
 72
    11
 73
     7
 74
     0
 42
0.00000001
 43
0.00000001
 12
1.0
 22
0.0
 32
0.0
 13
1.0
 23
0.0
 33
0.0
 40
0.0
 40
0.0
 40
0.0
 40
0.0
 40
0.2500124671205364
 40
0.5000115881407363
 40
0.7500061878800297
 40
1.0
 40
1.0
 40
1.0
 40
1.0
 10
43.59283626341385
 20
44.84567489603288
 30
0.0
 10
43.59380723753274
 20
44.85118494326998
 30
0.0
 10
43.59574913393823
 20
44.86220474360827
 30
0.0
 10
43.61068787859872
 20
44.87873172158715
 30
0.0
 10
43.63204160668453
 20
44.89525940608664
 30
0.0
 10
43.64897103144342
 20
44.90627765601637
 30
0.0
 10
43.65743573048863
 20
44.91178677230285
 30
0.0
  0
LINE
  5
4D
330
1F
100
AcDbEntity
  8
SLD-0
  6
Continuous
370
    15
100
AcDbLine
 10
43.6574357305
 20
11.1464382692
 30
0.0
 11
43.6574357305
 21
44.9117867723
 31
0.0
  0
LINE
  5
4E
330
1F
100
AcDbEntity
  8
SLD-0
  6
Continuous
370
    15
100
AcDbLine
 10
43.6575483692
 20
45.349512489
 30
0.0
 11
43.6575483692
 21
44.911899411
 31
0.0
  0
LINE
  5
4F
330
1F
100
AcDbEntity
  8
SLD-0
  6
Continuous
370
    15
100
AcDbLine
 10
43.6575483692
 20
45.349512489
 30
0.0
 11
82.6831239957
 21
45.349512489
 31
0.0
  0
LINE
  5
50
330
1F
100
AcDbEntity
  8
SLD-0
  6
Continuous
370
    15
100
AcDbLine
 10
82.6831239957
 20
44.911899411
 30
0.0
 11
82.6831239957
 21
45.349512489
 31
0.0
  0
LINE
  5
51
330
1F
100
AcDbEntity
  8
SLD-0
  6
Continuous
370
    15
100
AcDbLine
 10
82.6832366344
 20
44.9117867723
 30
0.0
 11
82.6831239957
 21
44.911899411
 31
0.0
  0
LINE
  5
52
330
1F
100
AcDbEntity
  8
SLD-0
  6
Continuous
370
    15
100
AcDbLine
 10
82.6832366344
 20
44.9117867723
 30
0.0
 11
82.6832366344
 21
11.1464382692
 31
0.0
  0
LINE
  5
53
330
1F
100
AcDbEntity
  8
SLD-0
  6
Continuous
370
    15
100
AcDbLine
 10
82.6831239957
 20
10.7087128825
 30
0.0
 11
82.6831239957
 21
11.1463255571
 31
0.0
  0
LINE
  5
54
330
1F
100
AcDbEntity
  8
SLD-0
  6
Continuous
370
    15
100
AcDbLine
 10
82.6831239957
 20
10.7087128825
 30
0.0
 11
43.6575483692
 21
10.7087128825
 31
0.0
  0
LINE
  5
55
330
1F
100
AcDbEntity
  8
SLD-0
  6
Continuous
370
    15
100
AcDbLine
 10
43.6575483692
 20
11.1463255571
 30
0.0
 11
43.6575483692
 21
10.7087128825
 31
0.0
  0
LINE
  5
56
330
1F
100
AcDbEntity
  8
SLD-0
  6
Continuous
370
    15
100
AcDbLine
 10
43.6574357305
 20
11.1464382692
 30
0.0
 11
43.6575483692
 21
11.1463255571
 31
0.0
  0
LINE
  5
57
330
1F
100
AcDbEntity
  8
SLD-0
  6
Continuous
370
    15
100
AcDbLine
 10
81.2349364587
 20
40.4577639856
 30
0.0
 11
81.2349364587
 21
17.330612699
 31
0.0
  0
LINE
  5
58
330
1F
100
AcDbEntity
  8
SLD-0
  6
Continuous
370
    15
100
AcDbLine
 10
81.2349364587
 20
40.4577639856
 30
0.0
 11
81.2349364587
 21
41.0835118502
 31
0.0
  0
LINE
  5
59
330
1F
100
AcDbEntity
  8
SLD-0
  6
Continuous
370
    15
100
AcDbLine
 10
81.2349364587
 20
41.0835118502
 30
0.0
 11
80.6091874207
 21
41.0835118502
 31
0.0
  0
LINE
  5
5A
330
1F
100
AcDbEntity
  8
SLD-0
  6
Continuous
370
    15
100
AcDbLine
 10
45.7314849442
 20
41.0835118502
 30
0.0
 11
80.6091874207
 21
41.0835118502
 31
0.0
  0
LINE
  5
5B
330
1F
100
AcDbEntity
  8
SLD-0
  6
Continuous
370
    15
100
AcDbLine
 10
45.7314849442
 20
41.0835118502
 30
0.0
 11
45.1057359063
 21
41.0835118502
 31
0.0
  0
LINE
  5
5C
330
1F
100
AcDbEntity
  8
SLD-0
  6
Continuous
370
    15
100
AcDbLine
 10
45.1057359063
 20
41.0835118502
 30
0.0
 11
45.1057359063
 21
40.4577639856
 31
0.0
  0
LINE
  5
5D
330
1F
100
AcDbEntity
  8
SLD-0
  6
Continuous
370
    15
100
AcDbLine
 10
45.1057359063
 20
17.330612699
 30
0.0
 11
45.1057359063
 21
40.4577639856
 31
0.0
  0
LINE
  5
5E
330
1F
100
AcDbEntity
  8
SLD-0
  6
Continuous
370
    15
100
AcDbLine
 10
45.1057359063
 20
17.330612699
 30
0.0
 11
45.1057359063
 21
16.7051129915
 31
0.0
  0
LINE
  5
5F
330
1F
100
AcDbEntity
  8
SLD-0
  6
Continuous
370
    15
100
AcDbLine
 10
45.1057359063
 20
16.7051129915
 30
0.0
 11
46.1062362417
 21
16.7051129915
 31
0.0
  0
LINE
  5
60
330
1F
100
AcDbEntity
  8
SLD-0
  6
Continuous
370
    15
100
AcDbLine
 10
80.2344361232
 20
16.7051129915
 30
0.0
 11
46.1062362417
 21
16.7051129915
 31
0.0
  0
LINE
  5
61
330
1F
100
AcDbEntity
  8
SLD-0
  6
Continuous
370
    15
100
AcDbLine
 10
80.2344361232
 20
16.7051129915
 30
0.0
 11
81.2349364587
 21
16.7051129915
 31
0.0
  0
LINE
  5
62
330
1F
100
AcDbEntity
  8
SLD-0
  6
Continuous
370
    15
100
AcDbLine
 10
81.2349364587
 20
16.7051129915
 30
0.0
 11
81.2349364587
 21
17.330612699
 31
0.0
  0
LINE
  5
63
330
1F
100
AcDbEntity
  8
SLD-0
  6
Continuous
370
    15
100
AcDbLine
 10
43.6575483692
 20
44.911899411
 30
0.0
 11
43.6574357305
 21
44.9117867723
 31
0.0
  0
LINE
  5
64
330
1F
100
AcDbEntity
  8
SLD-0
  6
Continuous
370
    15
100
AcDbLine
 10
82.6831239957
 20
11.1463255571
 30
0.0
 11
82.6832366344
 21
11.1464382692
 31
0.0
  0
SPLINE
  5
65
330
1F
100
AcDbEntity
  8
SLD-0
  6
Continuous
370
    15
100
AcDbSpline
210
0.0
220
0.0
230
1.0
 70
     8
 71
     3
 72
    11
 73
     7
 74
     0
 42
0.00000001
 43
0.00000001
 12
1.0
 22
0.0
 32
0.0
 13
1.0
 23
0.0
 33
0.0
 40
0.0
 40
0.0
 40
0.0
 40
0.0
 40
0.2499938121199703
 40
0.4999884118592637
 40
0.7499875328794635
 40
1.0
 40
1.0
 40
1.0
 40
1.0
 10
82.68323663443972
 20
44.91178677230285
 30
0.0
 10
82.69170133348493
 20
44.90627765601637
 30
0.0
 10
82.70863075824381
 20
44.89525940608665
 30
0.0
 10
82.72998448632963
 20
44.87873172158714
 30
0.0
 10
82.74492323099012
 20
44.86220474360828
 30
0.0
 10
82.74686512739561
 20
44.85118494326997
 30
0.0
 10
82.74783610151451
 20
44.84567489603288
 30
0.0
  0
LINE
  5
66
330
1F
100
AcDbEntity
  8
SLD-0
  6
Continuous
370
    15
100
AcDbLine
 10
82.7478361015
 20
11.2125499254
 30
0.0
 11
82.7478361015
 21
44.845674896
 31
0.0
  0
SPLINE
  5
67
330
1F
100
AcDbEntity
  8
SLD-0
  6
Continuous
370
    15
100
AcDbSpline
210
0.0
220
0.0
230
1.0
 70
     8
 71
     3
 72
    11
 73
     7
 74
     0
 42
0.00000001
 43
0.00000001
 12
1.0
 22
0.0
 32
0.0
 13
1.0
 23
0.0
 33
0.0
 40
0.0
 40
0.0
 40
0.0
 40
0.0
 40
0.250004545686835
 40
0.5000062515687442
 40
0.7500036029740548
 40
1.0
 40
1.0
 40
1.0
 40
1.0
 10
82.74783610151451
 20
11.21254992542923
 30
0.0
 10
82.74686506828296
 20
11.20704062054758
 30
0.0
 10
82.74492301284985
 20
11.19602207336456
 30
0.0
 10
82.72998448031768
 20
11.17949427330312
 30
0.0
 10
82.70863076765372
 20
11.1629661725195
 30
0.0
 10
82.6917013347395
 20
11.15194756326694
 30
0.0
 10
82.68323663443972
 20
11.14643826915673
 30
0.0
  0
LINE
  5
68
330
1F
100
AcDbEntity
  8
SLD-0
  6
Continuous
370
    15
100
AcDbLine
 10
81.2349364587
 20
17.330612699
 30
0.0
 11
81.1703358183
 21
17.330612699
 31
0.0
  0
LINE
  5
69
330
1F
100
AcDbEntity
  8
SLD-0
  6
Continuous
370
    15
100
AcDbLine
 10
81.1703358183
 20
17.330612699
 30
0.0
 11
81.1703358183
 21
40.4577639856
 31
0.0
  0
LINE
  5
6A
330
1F
100
AcDbEntity
  8
SLD-0
  6
Continuous
370
    15
100
AcDbLine
 10
81.1703358183
 20
40.4577639856
 30
0.0
 11
81.2349364587
 21
40.4577639856
 31
0.0
  0
LINE
  5
6B
330
1F
100
AcDbEntity
  8
SLD-0
  6
Continuous
370
    15
100
AcDbLine
 10
80.2344361232
 20
16.7697130453
 30
0.0
 11
80.2344361232
 21
16.7051129915
 31
0.0
  0
LINE
  5
6C
330
1F
100
AcDbEntity
  8
SLD-0
  6
Continuous
370
    15
100
AcDbLine
 10
46.1062362417
 20
16.7051129915
 30
0.0
 11
46.1062362417
 21
16.7697130453
 31
0.0
  0
LINE
  5
6D
330
1F
100
AcDbEntity
  8
SLD-0
  6
Continuous
370
    15
100
AcDbLine
 10
80.2344361232
 20
16.7697130453
 30
0.0
 11
46.1062362417
 21
16.7697130453
 31
0.0
  0
LINE
  5
6E
330
1F
100
AcDbEntity
  8
SLD-0
  6
Continuous
370
    15
100
AcDbLine
 10
80.6091874207
 20
41.0835118502
 30
0.0
 11
80.6091874207
 21
41.0189135564
 31
0.0
  0
LINE
  5
6F
330
1F
100
AcDbEntity
  8
SLD-0
  6
Continuous
370
    15
100
AcDbLine
 10
80.6091874207
 20
41.0189135564
 30
0.0
 11
45.7314849442
 21
41.0189135564
 31
0.0
  0
LINE
  5
70
330
1F
100
AcDbEntity
  8
SLD-0
  6
Continuous
370
    15
100
AcDbLine
 10
45.7314849442
 20
41.0189135564
 30
0.0
 11
45.7314849442
 21
41.0835118502
 31
0.0
  0
LINE
  5
71
330
1F
100
AcDbEntity
  8
SLD-0
  6
Continuous
370
    15
100
AcDbLine
 10
43.6575483692
 20
10.6441128287
 30
0.0
 11
82.6831239957
 21
10.6441128287
 31
0.0
  0
LINE
  5
72
330
1F
100
AcDbEntity
  8
SLD-0
  6
Continuous
370
    15
100
AcDbLine
 10
82.6831239957
 20
10.7087128825
 30
0.0
 11
82.6831239957
 21
10.6441128287
 31
0.0
  0
LINE
  5
73
330
1F
100
AcDbEntity
  8
SLD-0
  6
Continuous
370
    15
100
AcDbLine
 10
43.6575483692
 20
10.6441128287
 30
0.0
 11
43.6575483692
 21
10.7087128825
 31
0.0
  0
LINE
  5
74
330
1F
100
AcDbEntity
  8
SLD-0
  6
Continuous
370
    15
100
AcDbLine
 10
82.6831239957
 20
45.4141131294
 30
0.0
 11
43.6575483692
 21
45.4141131294
 31
0.0
  0
LINE
  5
75
330
1F
100
AcDbEntity
  8
SLD-0
  6
Continuous
370
    15
100
AcDbLine
 10
43.6575483692
 20
45.349512489
 30
0.0
 11
43.6575483692
 21
45.4141131294
 31
0.0
  0
LINE
  5
76
330
1F
100
AcDbEntity
  8
SLD-0
  6
Continuous
370
    15
100
AcDbLine
 10
82.6831239957
 20
45.4141131294
 30
0.0
 11
82.6831239957
 21
45.349512489
 31
0.0
  0
SPLINE
  5
77
330
1F
100
AcDbEntity
  8
SLD-0
  6
Continuous
370
    15
100
AcDbSpline
210
0.0
220
0.0
230
1.0
 70
    24
 71
     3
 72
    11
 73
     7
 74
     0
 42
0.00000001
 43
0.00000001
 12
1.0
 22
0.0
 32
0.0
 13
1.0
 23
0.0
 33
0.0
 40
0.0
 40
0.0
 40
0.0
 40
0.0
 40
0.2500035274624504
 40
0.5000032326009185
 40
0.7499964725375495
 40
1.0
 40
1.0
 40
1.0
 40
1.0
 10
45.17033654666263
 20
17.33061269904599
 30
0.0
 10
45.16936551460745
 20
17.33061269904599
 30
0.0
 10
45.16742346534328
 20
17.33061269904599
 30
0.0
 10
45.15248501997859
 20
17.33061269904599
 30
0.0
 10
45.13113088438809
 20
17.33061269904599
 30
0.0
 10
45.11420101508648
 20
17.33061269904599
 30
0.0
 10
45.10573590626807
 20
17.33061269904599
 30
0.0
  0
LINE
  5
78
330
1F
100
AcDbEntity
  8
SLD-0
  6
Continuous
370
    15
100
AcDbLine
 10
45.1057359063
 20
40.4577639856
 30
0.0
 11
45.1703365467
 21
40.4577639856
 31
0.0
  0
LINE
  5
79
330
1F
100
AcDbEntity
  8
SLD-0
  6
Continuous
370
    15
100
AcDbLine
 10
45.1703365467
 20
40.4577639856
 30
0.0
 11
45.1703365467
 21
17.330612699
 31
0.0
  0
SPLINE
  5
7A
330
1F
100
AcDbEntity
  8
SLD-0
  6
Continuous
370
    15
100
AcDbSpline
210
0.0
220
0.0
230
1.0
 70
     8
 71
     3
 72
    13
 73
     9
 74
     0
 42
0.00000001
 43
0.00000001
 12
1.0
 22
0.0
 32
0.0
 13
1.0
 23
0.0
 33
0.0
 40
0.0
 40
0.0
 40
0.0
 40
0.0
 40
0.1666694838170834
 40
0.333350138390233
 40
0.4999903171319273
 40
0.6666663379495285
 40
0.8333598212583057
 40
1.0
 40
1.0
 40
1.0
 40
1.0
 10
45.30519909538563
 20
38.76386099366606
 30
0.0
 10
45.30298470680531
 20
38.76434053654246
 30
0.0
 10
45.29855578122883
 20
38.76529965443585
 30
0.0
 10
45.29191183133721
 20
38.77266499458865
 30
0.0
 10
45.28526752703729
 20
38.78321176761573
 30
0.0
 10
45.27862250590861
 20
38.79569053238059
 30
0.0
 10
45.27198147129587
 20
38.80839887451152
 30
0.0
 10
45.26755140709781
 20
38.81497540108985
 30
0.0
 10
45.26533672921241
 20
38.81826313854117
 30
0.0
  0
SPLINE
  5
7B
330
1F
100
AcDbEntity
  8
SLD-0
  6
Continuous
370
    15
100
AcDbSpline
210
0.0
220
0.0
230
1.0
 70
     8
 71
     3
 72
    13
 73
     9
 74
     0
 42
0.00000001
 43
0.00000001
 12
1.0
 22
0.0
 32
0.0
 13
1.0
 23
0.0
 33
0.0
 40
0.0
 40
0.0
 40
0.0
 40
0.0
 40
0.1666401787416943
 40
0.3333336620504716
 40
0.5000096828680727
 40
0.6666498616097669
 40
0.8333305161829166
 40
1.0
 40
1.0
 40
1.0
 40
1.0
 10
81.07533563571594
 20
38.81826313854117
 30
0.0
 10
81.07312095783054
 20
38.81497540108985
 30
0.0
 10
81.06869089363248
 20
38.8083988745115
 30
0.0
 10
81.06204985901974
 20
38.7956905323806
 30
0.0
 10
81.05540483789106
 20
38.78321176761573
 30
0.0
 10
81.04876053359114
 20
38.77266499458864
 30
0.0
 10
81.04211658369952
 20
38.76529965443586
 30
0.0
 10
81.03768765812303
 20
38.76434053654246
 30
0.0
 10
81.03547326954273
 20
38.76386099366606
 30
0.0
  0
LINE
  5
7C
330
1F
100
AcDbEntity
  8
SLD-0
  6
Continuous
370
    15
100
AcDbLine
 10
81.0753356357
 20
38.8182631385
 30
0.0
 11
45.2653367292
 21
38.8182631385
 31
0.0
  0
ARC
  5
7D
330
1F
100
AcDbEntity
  8
SLD-0
  6
Continuous
370
    15
100
AcDbCircle
 10
45.2597230683
 20
40.895504328
 30
0.0
 40
0.0400808892474066
100
AcDbArc
 50
81.9487805706
 51
168.576879912
  0
SPLINE
  5
7E
330
1F
100
AcDbEntity
  8
SLD-0
  6
Continuous
370
    15
100
AcDbSpline
210
0.0
220
0.0
230
1.0
 70
     8
 71
     3
 72
    11
 73
     7
 74
     0
 42
0.00000001
 43
0.00000001
 12
1.0
 22
0.0
 32
0.0
 13
1.0
 23
0.0
 33
0.0
 40
0.0
 40
0.0
 40
0.0
 40
0.0
 40
0.2582827669368546
 40
0.5167719002711273
 40
0.7752213710255685
 40
1.0
 40
1.0
 40
1.0
 40
1.0
 10
45.26533672921241
 20
38.81826313854117
 30
0.0
 10
45.2592569075661
 20
38.82061828102142
 30
0.0
 10
45.24709240653206
 20
38.82533044772679
 30
0.0
 10
45.23193161612735
 20
38.826101871147
 30
0.0
 10
45.22216109083436
 20
38.82371012356181
 30
0.0
 10
45.22098377072817
 20
38.82102870456257
 30
0.0
 10
45.22043612790799
 20
38.81978141433526
 30
0.0
  0
LINE
  5
7F
330
1F
100
AcDbEntity
  8
SLD-0
  6
Continuous
370
    15
100
AcDbLine
 10
45.2204361279
 20
38.8197814143
 30
0.0
 11
45.2204361279
 21
40.9034424637
 31
0.0
  0
LINE
  5
80
330
1F
100
AcDbEntity
  8
SLD-0
  6
Continuous
370
    15
100
AcDbLine
 10
81.0753356357
 20
40.9351901503
 30
0.0
 11
45.2653367292
 21
40.9351901503
 31
0.0
  0
LINE
  5
81
330
1F
100
AcDbEntity
  8
SLD-0
  6
Continuous
370
    15
100
AcDbLine
 10
81.0753356357
 20
40.9351901503
 30
0.0
 11
81.0753356357
 21
38.8182631385
 31
0.0
  0
ARC
  5
82
330
1F
100
AcDbEntity
  8
SLD-0
  6
Continuous
370
    15
100
AcDbCircle
 10
81.0809492966
 20
40.895504328
 30
0.0
 40
0.0400808892474176
100
AcDbArc
 50
11.4231200881
 51
98.0512194294
  0
LINE
  5
83
330
1F
100
AcDbEntity
  8
SLD-0
  6
Continuous
370
    15
100
AcDbLine
 10
81.120236237
 20
40.9034424637
 30
0.0
 11
81.120236237
 21
38.8197814143
 31
0.0
  0
SPLINE
  5
84
330
1F
100
AcDbEntity
  8
SLD-0
  6
Continuous
370
    15
100
AcDbSpline
210
0.0
220
0.0
230
1.0
 70
     8
 71
     3
 72
    11
 73
     7
 74
     0
 42
0.00000001
 43
0.00000001
 12
1.0
 22
0.0
 32
0.0
 13
1.0
 23
0.0
 33
0.0
 40
0.0
 40
0.0
 40
0.0
 40
0.0
 40
0.2582652043578707
 40
0.5167242912644537
 40
0.7752060992888176
 40
1.0
 40
1.0
 40
1.0
 40
1.0
 10
81.12023623702036
 20
38.81978141433525
 30
0.0
 10
81.11951468350243
 20
38.82121466966656
 30
0.0
 10
81.11807103478837
 20
38.82408225628981
 30
0.0
 10
81.10700507298219
 20
38.82620970440664
 30
0.0
 10
81.09198148945893
 20
38.82488689461572
 30
0.0
 10
81.08062026641272
 20
38.82036601083718
 30
0.0
 10
81.07533563571594
 20
38.81826313854117
 30
0.0
  0
LINE
  5
85
330
1F
100
AcDbEntity
  8
SLD-0
  6
Continuous
370
    15
100
AcDbLine
 10
81.0753356357
 20
40.9483407184
 30
0.0
 11
45.2653367292
 21
40.9483407184
 31
0.0
  0
LINE
  5
86
330
1F
100
AcDbEntity
  8
SLD-0
  6
Continuous
370
    15
100
AcDbLine
 10
81.0753356357
 20
40.9483407184
 30
0.0
 11
81.0753356357
 21
40.9351901503
 31
0.0
  0
LINE
  5
87
330
1F
100
AcDbEntity
  8
SLD-0
  6
Continuous
370
    15
100
AcDbLine
 10
45.2303366002
 20
16.7051129915
 30
0.0
 11
45.2303366002
 21
16.7225127372
 31
0.0
  0
LINE
  5
88
330
1F
100
AcDbEntity
  8
SLD-0
  6
Continuous
370
    15
100
AcDbLine
 10
45.2303366002
 20
16.7225127372
 30
0.0
 11
46.1062362417
 21
16.7225127372
 31
0.0
  0
LINE
  5
89
330
1F
100
AcDbEntity
  8
SLD-0
  6
Continuous
370
    15
100
AcDbLine
 10
80.2344361232
 20
16.7225127372
 30
0.0
 11
81.1103357647
 21
16.7225127372
 31
0.0
  0
LINE
  5
8A
330
1F
100
AcDbEntity
  8
SLD-0
  6
Continuous
370
    15
100
AcDbLine
 10
81.1103357647
 20
16.7225127372
 30
0.0
 11
81.1103357647
 21
16.7051129915
 31
0.0
  0
LINE
  5
8B
330
1F
100
AcDbEntity
  8
SLD-0
  6
Continuous
370
    15
100
AcDbLine
 10
53.2953366593
 20
40.9759418929
 30
0.0
 11
53.2953366593
 21
40.9483407184
 31
0.0
  0
LINE
  5
8C
330
1F
100
AcDbEntity
  8
SLD-0
  6
Continuous
370
    15
100
AcDbLine
 10
53.2953366593
 20
40.9759418929
 30
0.0
 11
73.0453357056
 21
40.9759418929
 31
0.0
  0
LINE
  5
8D
330
1F
100
AcDbEntity
  8
SLD-0
  6
Continuous
370
    15
100
AcDbLine
 10
73.0453357056
 20
40.9483407184
 30
0.0
 11
73.0453357056
 21
40.9759418929
 31
0.0
  0
LINE
  5
8E
330
1F
100
AcDbEntity
  8
SLD-0
  6
Continuous
370
    15
100
AcDbLine
 10
53.0453362407
 20
40.9483407184
 30
0.0
 11
53.0453362407
 21
40.9759418929
 31
0.0
  0
LINE
  5
8F
330
1F
100
AcDbEntity
  8
SLD-0
  6
Continuous
370
    15
100
AcDbLine
 10
53.2953366593
 20
40.9759418929
 30
0.0
 11
53.0453362407
 21
40.9759418929
 31
0.0
  0
LINE
  5
90
330
1F
100
AcDbEntity
  8
SLD-0
  6
Continuous
370
    15
100
AcDbLine
 10
45.1833721294
 20
40.9483407184
 30
0.0
 11
45.2653367292
 21
40.9483407184
 31
0.0
  0
LINE
  5
91
330
1F
100
AcDbEntity
  8
SLD-0
  6
Continuous
370
    15
100
AcDbLine
 10
45.1833721294
 20
40.9759418929
 30
0.0
 11
53.0453362407
 21
40.9759418929
 31
0.0
  0
LINE
  5
92
330
1F
100
AcDbEntity
  8
SLD-0
  6
Continuous
370
    15
100
AcDbLine
 10
45.1833721294
 20
40.9759418929
 30
0.0
 11
45.1833721294
 21
40.9483407184
 31
0.0
  0
LINE
  5
93
330
1F
100
AcDbEntity
  8
SLD-0
  6
Continuous
370
    15
100
AcDbLine
 10
73.2953361243
 20
40.9759418929
 30
0.0
 11
73.0453357056
 21
40.9759418929
 31
0.0
  0
LINE
  5
94
330
1F
100
AcDbEntity
  8
SLD-0
  6
Continuous
370
    15
100
AcDbLine
 10
73.2953361243
 20
40.9759418929
 30
0.0
 11
73.2953361243
 21
40.9483407184
 31
0.0
  0
LINE
  5
95
330
1F
100
AcDbEntity
  8
SLD-0
  6
Continuous
370
    15
100
AcDbLine
 10
73.2953361243
 20
40.9759418929
 30
0.0
 11
81.1573002355
 21
40.9759418929
 31
0.0
  0
LINE
  5
96
330
1F
100
AcDbEntity
  8
SLD-0
  6
Continuous
370
    15
100
AcDbLine
 10
81.0753356357
 20
40.9483407184
 30
0.0
 11
81.1573002355
 21
40.9483407184
 31
0.0
  0
LINE
  5
97
330
1F
100
AcDbEntity
  8
SLD-0
  6
Continuous
370
    15
100
AcDbLine
 10
81.1573002355
 20
40.9759418929
 30
0.0
 11
81.1573002355
 21
40.9483407184
 31
0.0
  0
LINE
  5
98
330
1F
100
AcDbEntity
  8
SLD-0
  6
Continuous
370
    15
100
AcDbLine
 10
62.9185645093
 20
41.0189135564
 30
0.0
 11
62.9185645093
 21
41.009541078
 31
0.0
  0
LINE
  5
99
330
1F
100
AcDbEntity
  8
SLD-0
  6
Continuous
370
    15
100
AcDbLine
 10
63.4185645032
 20
41.0189135564
 30
0.0
 11
63.4185645032
 21
41.009541078
 31
0.0
  0
ARC
  5
9A
330
1F
100
AcDbEntity
  8
SLD-0
  6
Continuous
370
    15
100
AcDbCircle
 10
82.6685645054
 20
10.7201128568
 30
0.0
 40
0.0309999999999973
100
AcDbArc
 50
298.0112210112
 51
0.0000000001
  0
LINE
  5
9B
330
1F
100
AcDbEntity
  8
SLD-0
  6
Continuous
370
    15
100
AcDbLine
 10
82.6995645525
 20
10.7201128574
 30
0.0
 11
82.7212639285
 21
10.7201128574
 31
0.0
  0
ARC
  5
9C
330
1F
100
AcDbEntity
  8
SLD-0
  6
Continuous
370
    15
100
AcDbCircle
 10
82.6685645054
 20
10.7201128568
 30
0.0
 40
0.0527000000000015
100
AcDbArc
 50
286.0372027492
 51
359.9999999996
  0
LINE
  5
9D
330
1F
100
AcDbEntity
  8
SLD-0
  6
Continuous
370
    15
100
AcDbLine
 10
82.6995645525
 20
11.157354873
 30
0.0
 11
82.6995645525
 21
10.7201128574
 31
0.0
  0
LINE
  5
9E
330
1F
100
AcDbEntity
  8
SLD-0
  6
Continuous
370
    15
100
AcDbLine
 10
82.7212639285
 20
11.173460447
 30
0.0
 11
82.7212639285
 21
10.7201128574
 31
0.0
  0
LINE
  5
9F
330
1F
100
AcDbEntity
  8
SLD-0
  6
Continuous
370
    15
100
AcDbLine
 10
43.6375643867
 20
11.1597238423
 30
0.0
 11
43.6375643867
 21
10.7201128574
 31
0.0
  0
LINE
  5
A0
330
1F
100
AcDbEntity
  8
SLD-0
  6
Continuous
370
    15
100
AcDbLine
 10
43.6375643867
 20
10.7201128574
 30
0.0
 11
43.6158650107
 21
10.7201128574
 31
0.0
  0
LINE
  5
A1
330
1F
100
AcDbEntity
  8
SLD-0
  6
Continuous
370
    15
100
AcDbLine
 10
43.6158650107
 20
11.1762548547
 30
0.0
 11
43.6158650107
 21
10.7201128574
 31
0.0
  0
ARC
  5
A2
330
1F
100
AcDbEntity
  8
SLD-0
  6
Continuous
370
    15
100
AcDbCircle
 10
43.6685645054
 20
10.7201128568
 30
0.0
 40
0.0527
100
AcDbArc
 50
179.9999999999
 51
257.9347712468
  0
ARC
  5
A3
330
1F
100
AcDbEntity
  8
SLD-0
  6
Continuous
370
    15
100
AcDbCircle
 10
43.6685645054
 20
10.7201128568
 30
0.0
 40
0.0310000000000024
100
AcDbArc
 50
180.0000000001
 51
249.1855491316
  0
LINE
  5
A4
330
1F
100
AcDbEntity
  8
SLD-0
  6
Continuous
370
    15
100
AcDbLine
 10
82.6995645525
 20
10.7201128574
 30
0.0
 11
82.6908139336
 21
10.7201128574
 31
0.0
  0
SPLINE
  5
A5
330
1F
100
AcDbEntity
  8
SLD-0
  6
Continuous
370
    15
100
AcDbSpline
210
0.0
220
0.0
230
1.0
 70
     8
 71
     3
 72
    10
 73
     6
 74
     0
 42
0.00000001
 43
0.00000001
 12
1.0
 22
0.0
 32
0.0
 13
1.0
 23
0.0
 33
0.0
 40
0.0
 40
0.0
 40
0.0
 40
0.0
 40
0.462960249124498
 40
0.9264898099048716
 40
1.0
 40
1.0
 40
1.0
 40
1.0
 10
82.69081393357278
 20
10.72011285743759
 30
0.0
 10
82.69095191202469
 20
10.71573304551251
 30
0.0
 10
82.69122803860346
 20
10.70696803571832
 30
0.0
 10
82.6872768975319
 20
10.69813339216464
 30
0.0
 10
82.68362400496149
 20
10.69583000943588
 30
0.0
 10
82.68312399574094
 20
10.69551472159736
 30
0.0
  0
LINE
  5
A6
330
1F
100
AcDbEntity
  8
SLD-0
  6
Continuous
370
    15
100
AcDbLine
 10
43.6375643867
 20
10.7201128574
 30
0.0
 11
43.6463150056
 21
10.7201128574
 31
0.0
  0
SPLINE
  5
A7
330
1F
100
AcDbEntity
  8
SLD-0
  6
Continuous
370
    15
100
AcDbSpline
210
0.0
220
0.0
230
1.0
 70
     8
 71
     3
 72
    10
 73
     6
 74
     0
 42
0.00000001
 43
0.00000001
 12
1.0
 22
0.0
 32
0.0
 13
1.0
 23
0.0
 33
0.0
 40
0.0
 40
0.0
 40
0.0
 40
0.0
 40
0.3645855350896307
 40
0.7544015914896112
 40
1.0
 40
1.0
 40
1.0
 40
1.0
 10
43.65754836918742
 20
10.69248872988721
 30
0.0
 10
43.65476612118088
 20
10.69473215994399
 30
0.0
 10
43.64900908443082
 20
10.69937427281556
 30
0.0
 10
43.6454651169771
 20
10.71007138532484
 30
0.0
 10
43.64607808366052
 20
10.7173136139255
 30
0.0
 10
43.64631500562286
 20
10.72011285743759
 30
0.0
  0
LINE
  5
A8
330
1F
100
AcDbEntity
  8
SLD-0
  6
Continuous
370
    15
100
AcDbLine
 10
82.6908139336
 20
10.7201128574
 30
0.0
 11
82.6831239957
 21
10.7771747716
 31
0.0
  0
LINE
  5
A9
330
1F
100
AcDbEntity
  8
SLD-0
  6
Continuous
370
    15
100
AcDbLine
 10
82.6995645525
 20
10.8127037745
 30
0.0
 11
82.6831239957
 21
10.9347000652
 31
0.0
  0
LINE
  5
AA
330
1F
100
AcDbEntity
  8
SLD-0
  6
Continuous
370
    15
100
AcDbLine
 10
43.6575483692
 20
10.8034673279
 30
0.0
 11
43.6463150056
 21
10.7201128574
 31
0.0
  0
LINE
  5
AB
330
1F
100
AcDbEntity
  8
SLD-0
  6
Continuous
370
    15
100
AcDbLine
 10
43.6575483692
 20
10.9609926214
 30
0.0
 11
43.6375643867
 21
10.8127037745
 31
0.0
  0
LINE
  5
AC
330
1F
100
AcDbEntity
  8
SLD-0
  6
Continuous
370
    15
100
AcDbLine
 10
42.6662210478
 20
36.6331122749
 30
0.0
 11
43.5928362634
 21
36.6331122749
 31
0.0
  0
LINE
  5
AD
330
1F
100
AcDbEntity
  8
SLD-0
  6
Continuous
370
    15
100
AcDbLine
 10
42.6662210478
 20
36.6331122749
 30
0.0
 11
42.6662210478
 21
39.7581134013
 31
0.0
  0
LINE
  5
AE
330
1F
100
AcDbEntity
  8
SLD-0
  6
Continuous
370
    15
100
AcDbLine
 10
42.6662210478
 20
39.7581134013
 30
0.0
 11
43.5928362634
 21
39.7581134013
 31
0.0
  0
CIRCLE
  5
AF
330
1F
100
AcDbEntity
  8
SLD-0
  6
Continuous
370
    15
100
AcDbCircle
 10
42.8532211754
 20
38.1956128568
 30
0.0
 40
0.09375
  0
LINE
  5
B0
330
1F
100
AcDbEntity
  8
SLD-0
  6
Continuous
370
    15
100
AcDbLine
 10
83.6759273535
 20
19.3451130007
 30
0.0
 11
83.6759273535
 21
16.2201127543
 31
0.0
  0
LINE
  5
B1
330
1F
100
AcDbEntity
  8
SLD-0
  6
Continuous
370
    15
100
AcDbLine
 10
83.6759273535
 20
19.3451130007
 30
0.0
 11
82.7478361015
 21
19.3451130007
 31
0.0
  0
LINE
  5
B2
330
1F
100
AcDbEntity
  8
SLD-0
  6
Continuous
370
    15
100
AcDbLine
 10
83.6759273535
 20
16.2201127543
 30
0.0
 11
82.7478361015
 21
16.2201127543
 31
0.0
  0
CIRCLE
  5
B3
330
1F
100
AcDbEntity
  8
SLD-0
  6
Continuous
370
    15
100
AcDbCircle
 10
83.4889264211
 20
17.7826128568
 30
0.0
 40
0.09375
  0
CIRCLE
  5
B4
330
1F
100
AcDbEntity
  8
SLD-0
  6
Continuous
370
    15
100
AcDbCircle
 10
42.8532211754
 20
18.2826128568
 30
0.0
 40
0.09375
  0
LINE
  5
B5
330
1F
100
AcDbEntity
  8
SLD-0
  6
Continuous
370
    15
100
AcDbLine
 10
42.6662210478
 20
16.7201127116
 30
0.0
 11
43.5928362634
 21
16.7201127116
 31
0.0
  0
LINE
  5
B6
330
1F
100
AcDbEntity
  8
SLD-0
  6
Continuous
370
    15
100
AcDbLine
 10
42.6662210478
 20
16.7201127116
 30
0.0
 11
42.6662210478
 21
19.8451126647
 31
0.0
  0
LINE
  5
B7
330
1F
100
AcDbEntity
  8
SLD-0
  6
Continuous
370
    15
100
AcDbLine
 10
42.6662210478
 20
19.8451126647
 30
0.0
 11
43.5928362634
 21
19.8451126647
 31
0.0
  0
LINE
  5
B8
330
1F
100
AcDbEntity
  8
SLD-0
  6
Continuous
370
    15
100
AcDbLine
 10
83.6759273535
 20
39.258112564
 30
0.0
 11
82.7478361015
 21
39.258112564
 31
0.0
  0
LINE
  5
B9
330
1F
100
AcDbEntity
  8
SLD-0
  6
Continuous
370
    15
100
AcDbLine
 10
83.6759273535
 20
36.1331137843
 30
0.0
 11
82.7478361015
 21
36.1331137843
 31
0.0
  0
CIRCLE
  5
BA
330
1F
100
AcDbEntity
  8
SLD-0
  6
Continuous
370
    15
100
AcDbCircle
 10
83.4889264211
 20
37.6956128568
 30
0.0
 40
0.09375
  0
LINE
  5
BB
330
1F
100
AcDbEntity
  8
SLD-0
  6
Continuous
370
    15
100
AcDbLine
 10
83.6759273535
 20
39.258112564
 30
0.0
 11
83.6759273535
 21
36.1331137843
 31
0.0
  0
LINE
  5
BC
330
1F
100
AcDbEntity
  8
SLD-0
  6
Continuous
370
    15
100
AcDbLine
 10
47.7841398451
 20
41.009541078
 30
0.0
 11
47.7841398451
 21
40.9759418929
 31
0.0
  0
LINE
  5
BD
330
1F
100
AcDbEntity
  8
SLD-0
  6
Continuous
370
    15
100
AcDbLine
 10
60.6703361027
 20
40.9759418929
 30
0.0
 11
60.6703361027
 21
41.009541078
 31
0.0
  0
LINE
  5
BE
330
1F
100
AcDbEntity
  8
SLD-0
  6
Continuous
370
    15
100
AcDbLine
 10
47.7841398451
 20
41.009541078
 30
0.0
 11
60.6703361027
 21
41.009541078
 31
0.0
  0
SPLINE
  5
BF
330
1F
100
AcDbEntity
  8
SLD-0
  6
Continuous
370
    15
100
AcDbSpline
210
0.0
220
0.0
230
1.0
 70
     8
 71
     3
 72
    10
 73
     6
 74
     0
 42
0.00000001
 43
0.00000001
 12
1.0
 22
0.0
 32
0.0
 13
1.0
 23
0.0
 33
0.0
 40
0.0
 40
0.0
 40
0.0
 40
0.0
 40
0.2576654320206821
 40
0.6288379747204902
 40
1.0
 40
1.0
 40
1.0
 40
1.0
 10
47.73907497904373
 20
40.97594189285208
 30
0.0
 10
47.74115309552832
 20
40.98105094509667
 30
0.0
 10
47.74622478306961
 20
40.99351969591449
 30
0.0
 10
47.76287578400227
 20
41.00651249835838
 30
0.0
 10
47.77705189169476
 20
41.00853156101802
 30
0.0
 10
47.78413984511722
 20
41.00954107804476
 30
0.0
  0
LINE
  5
C0
330
1F
100
AcDbEntity
  8
SLD-0
  6
Continuous
370
    15
100
AcDbLine
 10
78.5565325198
 20
41.009541078
 30
0.0
 11
78.5565325198
 21
40.9759418929
 31
0.0
  0
LINE
  5
C1
330
1F
100
AcDbEntity
  8
SLD-0
  6
Continuous
370
    15
100
AcDbLine
 10
65.6703362622
 20
40.9759418929
 30
0.0
 11
65.6703362622
 21
41.009541078
 31
0.0
  0
LINE
  5
C2
330
1F
100
AcDbEntity
  8
SLD-0
  6
Continuous
370
    15
100
AcDbLine
 10
65.6703362622
 20
41.009541078
 30
0.0
 11
78.5565325198
 21
41.009541078
 31
0.0
  0
SPLINE
  5
C3
330
1F
100
AcDbEntity
  8
SLD-0
  6
Continuous
370
    15
100
AcDbSpline
210
0.0
220
0.0
230
1.0
 70
     8
 71
     3
 72
    10
 73
     6
 74
     0
 42
0.00000001
 43
0.00000001
 12
1.0
 22
0.0
 32
0.0
 13
1.0
 23
0.0
 33
0.0
 40
0.0
 40
0.0
 40
0.0
 40
0.0
 40
0.3711620252795099
 40
0.7423345679793178
 40
1.0
 40
1.0
 40
1.0
 40
1.0
 10
78.55653251981113
 20
41.00954107804476
 30
0.0
 10
78.56362047323358
 20
41.008531561018
 30
0.0
 10
78.57779658092606
 20
41.00651249835838
 30
0.0
 10
78.59444758185873
 20
40.99351969591449
 30
0.0
 10
78.59951926940003
 20
40.98105094509668
 30
0.0
 10
78.60159738588462
 20
40.97594189285208
 30
0.0
  0
LINE
  5
C4
330
1F
100
AcDbEntity
  8
SLD-0
  6
Continuous
370
    15
100
AcDbLine
 10
65.6703362622
 20
41.009541078
 30
0.0
 11
60.6703361027
 21
41.009541078
 31
0.0
  0
LINE
  5
C5
330
1F
100
AcDbEntity
  8
SLD-0
  6
Continuous
370
    15
100
AcDbLine
 10
52.0995325533
 20
47.0267566867
 30
0.0
 11
52.0736186127
 21
47.0418737387
 31
0.0
  0
LINE
  5
C6
330
1F
100
AcDbEntity
  8
SLD-0
  6
Continuous
370
    15
100
AcDbLine
 10
52.0995325533
 20
47.0267566867
 30
0.0
 11
51.9735649419
 21
46.8108118746
 31
0.0
  0
LINE
  5
C7
330
1F
100
AcDbEntity
  8
SLD-0
  6
Continuous
370
    15
100
AcDbLine
 10
51.9735649419
 20
46.8108118746
 30
0.0
 11
51.9476510012
 21
46.8259289266
 31
0.0
  0
LINE
  5
C8
330
1F
100
AcDbEntity
  8
SLD-0
  6
Continuous
370
    15
100
AcDbLine
 10
52.0736186127
 20
47.0418737387
 30
0.0
 11
51.9476510012
 21
46.8259289266
 31
0.0
  0
LINE
  5
C9
330
1F
100
AcDbEntity
  8
SLD-0
  6
Continuous
370
    15
100
AcDbLine
 10
52.8356076768
 20
48.2886010964
 30
0.0
 11
52.8096949095
 21
48.3037181484
 31
0.0
  0
LINE
  5
CA
330
1F
100
AcDbEntity
  8
SLD-0
  6
Continuous
370
    15
100
AcDbLine
 10
52.8356076768
 20
48.2886010964
 30
0.0
 11
52.0995325533
 21
47.0267566867
 31
0.0
  0
LINE
  5
CB
330
1F
100
AcDbEntity
  8
SLD-0
  6
Continuous
370
    15
100
AcDbLine
 10
52.8096949095
 20
48.3037181484
 30
0.0
 11
52.0736186127
 21
47.0418737387
 31
0.0
  0
LINE
  5
CC
330
1F
100
AcDbEntity
  8
SLD-0
  6
Continuous
370
    15
100
AcDbLine
 10
52.8874343848
 20
48.3037181484
 30
0.0
 11
52.8615216174
 21
48.2886010964
 31
0.0
  0
LINE
  5
CD
330
1F
100
AcDbEntity
  8
SLD-0
  6
Continuous
370
    15
100
AcDbLine
 10
53.6235100949
 20
47.0418737387
 30
0.0
 11
52.8874343848
 21
48.3037181484
 31
0.0
  0
LINE
  5
CE
330
1F
100
AcDbEntity
  8
SLD-0
  6
Continuous
370
    15
100
AcDbLine
 10
53.5975967409
 20
47.0267566867
 30
0.0
 11
53.6235100949
 21
47.0418737387
 31
0.0
  0
LINE
  5
CF
330
1F
100
AcDbEntity
  8
SLD-0
  6
Continuous
370
    15
100
AcDbLine
 10
53.5975967409
 20
47.0267566867
 30
0.0
 11
52.8615216174
 21
48.2886010964
 31
0.0
  0
ARC
  5
D0
330
1F
100
AcDbEntity
  8
SLD-0
  6
Continuous
370
    15
100
AcDbCircle
 10
52.8485645054
 20
48.281043334
 30
0.0
 40
0.0450000000000027
100
AcDbArc
 50
30.2564371635
 51
149.7435628365
  0
ARC
  5
D1
330
1F
100
AcDbEntity
  8
SLD-0
  6
Continuous
370
    15
100
AcDbCircle
 10
52.8485645054
 20
48.281043334
 30
0.0
 40
0.0149999999999992
100
AcDbArc
 50
30.2564371635
 51
149.7435628364
  0
LINE
  5
D2
330
1F
100
AcDbEntity
  8
SLD-0
  6
Continuous
370
    15
100
AcDbLine
 10
53.7235643524
 20
46.8108118746
 30
0.0
 11
53.7494777064
 21
46.8259289266
 31
0.0
  0
LINE
  5
D3
330
1F
100
AcDbEntity
  8
SLD-0
  6
Continuous
370
    15
100
AcDbLine
 10
53.6235100949
 20
47.0418737387
 30
0.0
 11
53.7494777064
 21
46.8259289266
 31
0.0
  0
LINE
  5
D4
330
1F
100
AcDbEntity
  8
SLD-0
  6
Continuous
370
    15
100
AcDbLine
 10
53.5975967409
 20
47.0267566867
 30
0.0
 11
53.7235643524
 21
46.8108118746
 31
0.0
  0
LINE
  5
D5
330
1F
100
AcDbEntity
  8
SLD-0
  6
Continuous
370
    15
100
AcDbLine
 10
53.7582957912
 20
46.8108118746
 30
0.0
 11
53.7323824372
 21
46.7956971692
 31
0.0
  0
LINE
  5
D6
330
1F
100
AcDbEntity
  8
SLD-0
  6
Continuous
370
    15
100
AcDbLine
 10
53.7582957912
 20
46.8108118746
 30
0.0
 11
53.7494777064
 21
46.8259289266
 31
0.0
  0
LINE
  5
D7
330
1F
100
AcDbEntity
  8
SLD-0
  6
Continuous
370
    15
100
AcDbLine
 10
53.7323824372
 20
46.7956971692
 30
0.0
 11
53.7235643524
 21
46.8108118746
 31
0.0
  0
LINE
  5
D8
330
1F
100
AcDbEntity
  8
SLD-0
  6
Continuous
370
    15
100
AcDbLine
 10
51.9647462704
 20
46.7956971692
 30
0.0
 11
51.9388335031
 21
46.8108118746
 31
0.0
  0
LINE
  5
D9
330
1F
100
AcDbEntity
  8
SLD-0
  6
Continuous
370
    15
100
AcDbLine
 10
51.9388335031
 20
46.8108118746
 30
0.0
 11
51.9476510012
 21
46.8259289266
 31
0.0
  0
LINE
  5
DA
330
1F
100
AcDbEntity
  8
SLD-0
  6
Continuous
370
    15
100
AcDbLine
 10
51.9735649419
 20
46.8108118746
 30
0.0
 11
51.9647462704
 21
46.7956971692
 31
0.0
  0
LINE
  5
DB
330
1F
100
AcDbEntity
  8
SLD-0
  6
Continuous
370
    15
100
AcDbLine
 10
54.5730373125
 20
45.4141131294
 30
0.0
 11
53.7582957912
 21
46.8108118746
 31
0.0
  0
LINE
  5
DC
330
1F
100
AcDbEntity
  8
SLD-0
  6
Continuous
370
    15
100
AcDbLine
 10
54.5383064604
 20
45.4141131294
 30
0.0
 11
53.7323824372
 21
46.7956971692
 31
0.0
  0
LINE
  5
DD
330
1F
100
AcDbEntity
  8
SLD-0
  6
Continuous
370
    15
100
AcDbLine
 10
51.9388335031
 20
46.8108118746
 30
0.0
 11
51.1240919817
 21
45.4141131294
 31
0.0
  0
LINE
  5
DE
330
1F
100
AcDbEntity
  8
SLD-0
  6
Continuous
370
    15
100
AcDbLine
 10
51.1588234205
 20
45.4141131294
 30
0.0
 11
51.9647462704
 21
46.7956971692
 31
0.0
  0
LINE
  5
DF
330
1F
100
AcDbEntity
  8
SLD-0
  6
Continuous
370
    15
100
AcDbLine
 10
73.4756073218
 20
48.2886010964
 30
0.0
 11
73.4496945544
 21
48.3037181484
 31
0.0
  0
LINE
  5
E0
330
1F
100
AcDbEntity
  8
SLD-0
  6
Continuous
370
    15
100
AcDbLine
 10
73.4756073218
 20
48.2886010964
 30
0.0
 11
72.7395321983
 21
47.0267566867
 31
0.0
  0
LINE
  5
E1
330
1F
100
AcDbEntity
  8
SLD-0
  6
Continuous
370
    15
100
AcDbLine
 10
72.7395321983
 20
47.0267566867
 30
0.0
 11
72.7136188443
 21
47.0418737387
 31
0.0
  0
LINE
  5
E2
330
1F
100
AcDbEntity
  8
SLD-0
  6
Continuous
370
    15
100
AcDbLine
 10
73.4496945544
 20
48.3037181484
 30
0.0
 11
72.7136188443
 21
47.0418737387
 31
0.0
  0
LINE
  5
E3
330
1F
100
AcDbEntity
  8
SLD-0
  6
Continuous
370
    15
100
AcDbLine
 10
73.5274340297
 20
48.3037181484
 30
0.0
 11
73.5015212624
 21
48.2886010964
 31
0.0
  0
LINE
  5
E4
330
1F
100
AcDbEntity
  8
SLD-0
  6
Continuous
370
    15
100
AcDbLine
 10
74.2635103265
 20
47.0418737387
 30
0.0
 11
73.5274340297
 21
48.3037181484
 31
0.0
  0
LINE
  5
E5
330
1F
100
AcDbEntity
  8
SLD-0
  6
Continuous
370
    15
100
AcDbLine
 10
74.2375963859
 20
47.0267566867
 30
0.0
 11
74.2635103265
 21
47.0418737387
 31
0.0
  0
LINE
  5
E6
330
1F
100
AcDbEntity
  8
SLD-0
  6
Continuous
370
    15
100
AcDbLine
 10
74.2375963859
 20
47.0267566867
 30
0.0
 11
73.5015212624
 21
48.2886010964
 31
0.0
  0
LINE
  5
E7
330
1F
100
AcDbEntity
  8
SLD-0
  6
Continuous
370
    15
100
AcDbLine
 10
72.6135645868
 20
46.8108118746
 30
0.0
 11
72.5876512328
 21
46.8259289266
 31
0.0
  0
LINE
  5
E8
330
1F
100
AcDbEntity
  8
SLD-0
  6
Continuous
370
    15
100
AcDbLine
 10
72.7136188443
 20
47.0418737387
 30
0.0
 11
72.5876512328
 21
46.8259289266
 31
0.0
  0
LINE
  5
E9
330
1F
100
AcDbEntity
  8
SLD-0
  6
Continuous
370
    15
100
AcDbLine
 10
72.7395321983
 20
47.0267566867
 30
0.0
 11
72.6135645868
 21
46.8108118746
 31
0.0
  0
ARC
  5
EA
330
1F
100
AcDbEntity
  8
SLD-0
  6
Continuous
370
    15
100
AcDbCircle
 10
73.4885645054
 20
48.281043334
 30
0.0
 40
0.0449999999999966
100
AcDbArc
 50
30.2564371635
 51
149.7435628365
  0
ARC
  5
EB
330
1F
100
AcDbEntity
  8
SLD-0
  6
Continuous
370
    15
100
AcDbCircle
 10
73.4885645054
 20
48.281043334
 30
0.0
 40
0.0150000000000053
100
AcDbArc
 50
30.2564371635
 51
149.7435628365
  0
LINE
  5
EC
330
1F
100
AcDbEntity
  8
SLD-0
  6
Continuous
370
    15
100
AcDbLine
 10
74.3635639973
 20
46.8108118746
 30
0.0
 11
74.389477938
 21
46.8259289266
 31
0.0
  0
LINE
  5
ED
330
1F
100
AcDbEntity
  8
SLD-0
  6
Continuous
370
    15
100
AcDbLine
 10
74.2635103265
 20
47.0418737387
 30
0.0
 11
74.389477938
 21
46.8259289266
 31
0.0
  0
LINE
  5
EE
330
1F
100
AcDbEntity
  8
SLD-0
  6
Continuous
370
    15
100
AcDbLine
 10
74.2375963859
 20
47.0267566867
 30
0.0
 11
74.3635639973
 21
46.8108118746
 31
0.0
  0
LINE
  5
EF
330
1F
100
AcDbEntity
  8
SLD-0
  6
Continuous
370
    15
100
AcDbLine
 10
74.3982954361
 20
46.8108118746
 30
0.0
 11
74.3723826688
 21
46.7956971692
 31
0.0
  0
LINE
  5
F0
330
1F
100
AcDbEntity
  8
SLD-0
  6
Continuous
370
    15
100
AcDbLine
 10
74.3982954361
 20
46.8108118746
 30
0.0
 11
74.389477938
 21
46.8259289266
 31
0.0
  0
LINE
  5
F1
330
1F
100
AcDbEntity
  8
SLD-0
  6
Continuous
370
    15
100
AcDbLine
 10
74.3723826688
 20
46.7956971692
 30
0.0
 11
74.3635639973
 21
46.8108118746
 31
0.0
  0
LINE
  5
F2
330
1F
100
AcDbEntity
  8
SLD-0
  6
Continuous
370
    15
100
AcDbLine
 10
75.2130369575
 20
45.4141131294
 30
0.0
 11
74.3982954361
 21
46.8108118746
 31
0.0
  0
LINE
  5
F3
330
1F
100
AcDbEntity
  8
SLD-0
  6
Continuous
370
    15
100
AcDbLine
 10
75.178306692
 20
45.4141131294
 30
0.0
 11
74.3723826688
 21
46.7956971692
 31
0.0
  0
LINE
  5
F4
330
1F
100
AcDbEntity
  8
SLD-0
  6
Continuous
370
    15
100
AcDbLine
 10
72.604746502
 20
46.7956971692
 30
0.0
 11
72.578833148
 21
46.8108118746
 31
0.0
  0
LINE
  5
F5
330
1F
100
AcDbEntity
  8
SLD-0
  6
Continuous
370
    15
100
AcDbLine
 10
72.578833148
 20
46.8108118746
 30
0.0
 11
71.7640916267
 21
45.4141131294
 31
0.0
  0
LINE
  5
F6
330
1F
100
AcDbEntity
  8
SLD-0
  6
Continuous
370
    15
100
AcDbLine
 10
71.7988230654
 20
45.4141131294
 30
0.0
 11
72.604746502
 21
46.7956971692
 31
0.0
  0
LINE
  5
F7
330
1F
100
AcDbEntity
  8
SLD-0
  6
Continuous
370
    15
100
AcDbLine
 10
72.578833148
 20
46.8108118746
 30
0.0
 11
72.5876512328
 21
46.8259289266
 31
0.0
  0
LINE
  5
F8
330
1F
100
AcDbEntity
  8
SLD-0
  6
Continuous
370
    15
100
AcDbLine
 10
72.6135645868
 20
46.8108118746
 30
0.0
 11
72.604746502
 21
46.7956971692
 31
0.0
  0
ARC
  5
F9
330
1F
100
AcDbEntity
  8
SLD-0
  6
Continuous
370
    15
100
AcDbCircle
 10
43.6685645054
 20
45.2581128568
 30
0.0
 40
0.0527000000000086
100
AcDbArc
 50
102.0652287531
 51
179.9999999996
  0
ARC
  5
FA
330
1F
100
AcDbEntity
  8
SLD-0
  6
Continuous
370
    15
100
AcDbCircle
 10
43.6685645054
 20
45.2581128568
 30
0.0
 40
0.0309999999999953
100
AcDbArc
 50
110.8144508683
 51
180.0000000001
  0
LINE
  5
FB
330
1F
100
AcDbEntity
  8
SLD-0
  6
Continuous
370
    15
100
AcDbLine
 10
43.6375643867
 20
45.2581132248
 30
0.0
 11
43.6158650107
 21
45.2581132248
 31
0.0
  0
LINE
  5
FC
330
1F
100
AcDbEntity
  8
SLD-0
  6
Continuous
370
    15
100
AcDbLine
 10
43.6158650107
 20
44.8819703701
 30
0.0
 11
43.6158650107
 21
45.2581132248
 31
0.0
  0
LINE
  5
FD
330
1F
100
AcDbEntity
  8
SLD-0
  6
Continuous
370
    15
100
AcDbLine
 10
43.6375643867
 20
44.8985024458
 30
0.0
 11
43.6375643867
 21
45.2581132248
 31
0.0
  0
ARC
  5
FE
330
1F
100
AcDbEntity
  8
SLD-0
  6
Continuous
370
    15
100
AcDbCircle
 10
82.6685645054
 20
45.2581128568
 30
0.0
 40
0.052700000000007
100
AcDbArc
 50
359.9999999999
 51
73.9627972507
  0
LINE
  5
FF
330
1F
100
AcDbEntity
  8
SLD-0
  6
Continuous
370
    15
100
AcDbLine
 10
82.6995645525
 20
45.2581132248
 30
0.0
 11
82.7212639285
 21
45.2581132248
 31
0.0
  0
ARC
  5
100
330
1F
100
AcDbEntity
  8
SLD-0
  6
Continuous
370
    15
100
AcDbCircle
 10
82.6685645054
 20
45.2581128568
 30
0.0
 40
0.0310000000000033
100
AcDbArc
 50
0.0000000001
 51
61.9887789886
  0
LINE
  5
101
330
1F
100
AcDbEntity
  8
SLD-0
  6
Continuous
370
    15
100
AcDbLine
 10
82.6995645525
 20
44.9008702051
 30
0.0
 11
82.6995645525
 21
45.2581132248
 31
0.0
  0
LINE
  5
102
330
1F
100
AcDbEntity
  8
SLD-0
  6
Continuous
370
    15
100
AcDbLine
 10
82.7212639285
 20
44.8847652178
 30
0.0
 11
82.7212639285
 21
45.2581132248
 31
0.0
  0
LINE
  5
103
330
1F
100
AcDbEntity
  8
SLD-0
  6
Continuous
370
    15
100
AcDbLine
 10
43.6375643867
 20
45.2581132248
 30
0.0
 11
43.6463150056
 21
45.2581132248
 31
0.0
  0
SPLINE
  5
104
330
1F
100
AcDbEntity
  8
SLD-0
  6
Continuous
370
    15
100
AcDbSpline
210
0.0
220
0.0
230
1.0
 70
     8
 71
     3
 72
    10
 73
     6
 74
     0
 42
0.00000001
 43
0.00000001
 12
1.0
 22
0.0
 32
0.0
 13
1.0
 23
0.0
 33
0.0
 40
0.0
 40
0.0
 40
0.0
 40
0.0
 40
0.3933117890366049
 40
0.7871585951057335
 40
1.0
 40
1.0
 40
1.0
 40
1.0
 10
43.64631500562286
 20
45.25811322484343
 30
0.0
 10
43.64615155627467
 20
45.26253319183238
 30
0.0
 10
43.64582443524024
 20
45.27137913823521
 30
0.0
 10
43.65079964340985
 20
45.28126058352827
 30
0.0
 10
43.65579564634746
 20
45.2841025476398
 30
0.0
 10
43.65754836918742
 20
45.28509957976144
 30
0.0
  0
LINE
  5
105
330
1F
100
AcDbEntity
  8
SLD-0
  6
Continuous
370
    15
100
AcDbLine
 10
82.6995645525
 20
45.2581132248
 30
0.0
 11
82.6908139336
 21
45.2581132248
 31
0.0
  0
SPLINE
  5
106
330
1F
100
AcDbEntity
  8
SLD-0
  6
Continuous
370
    15
100
AcDbSpline
210
0.0
220
0.0
230
1.0
 70
     8
 71
     3
 72
    10
 73
     6
 74
     0
 42
0.00000001
 43
0.00000001
 12
1.0
 22
0.0
 32
0.0
 13
1.0
 23
0.0
 33
0.0
 40
0.0
 40
0.0
 40
0.0
 40
0.0
 40
0.2350324971839012
 40
0.7043309266638258
 40
0.9999999999999999
 40
0.9999999999999999
 40
0.9999999999999999
 40
0.9999999999999999
 10
82.68312399574094
 20
45.28223902614012
 30
0.0
 10
82.68457602907114
 20
45.28099549374949
 30
0.0
 10
82.68892739321554
 20
45.27726895239234
 30
0.0
 10
82.69162524174165
 20
45.26811118928255
 30
0.0
 10
82.69104009844384
 20
45.2609003141702
 30
0.0
 10
82.69081393357278
 20
45.25811322484343
 30
0.0
  0
LINE
  5
107
330
1F
100
AcDbEntity
  8
SLD-0
  6
Continuous
370
    15
100
AcDbLine
 10
43.6463150056
 20
45.2581132248
 30
0.0
 11
43.6575483692
 21
45.1747582411
 31
0.0
  0
LINE
  5
108
330
1F
100
AcDbEntity
  8
SLD-0
  6
Continuous
370
    15
100
AcDbLine
 10
43.6375643867
 20
45.1655218678
 30
0.0
 11
43.6575483692
 21
45.0172330208
 31
0.0
  0
LINE
  5
109
330
1F
100
AcDbEntity
  8
SLD-0
  6
Continuous
370
    15
100
AcDbLine
 10
82.6831239957
 20
45.2010499907
 30
0.0
 11
82.6908139336
 21
45.2581132248
 31
0.0
  0
LINE
  5
10A
330
1F
100
AcDbEntity
  8
SLD-0
  6
Continuous
370
    15
100
AcDbLine
 10
82.6831239957
 20
45.0435247705
 30
0.0
 11
82.6995645525
 21
45.1655218678
 31
0.0
  0
LINE
  5
10B
330
1F
100
AcDbEntity
  8
SLD-0
  6
Continuous
370
    15
100
AcDbLine
 10
82.6908139336
 20
10.7201128574
 30
0.0
 11
82.6831239957
 21
10.7201128574
 31
0.0
  0
LINE
  5
10C
330
1F
100
AcDbEntity
  8
SLD-0
  6
Continuous
370
    15
100
AcDbLine
 10
43.6575483692
 20
10.7201128574
 30
0.0
 11
43.6463150056
 21
10.7201128574
 31
0.0
  0
LINE
  5
10D
330
1F
100
AcDbEntity
  8
SLD-0
  6
Continuous
370
    15
100
AcDbLine
 10
43.6463150056
 20
45.2581132248
 30
0.0
 11
43.6575483692
 21
45.2581132248
 31
0.0
  0
LINE
  5
10E
330
1F
100
AcDbEntity
  8
SLD-0
  6
Continuous
370
    15
100
AcDbLine
 10
82.6831239957
 20
45.2581132248
 30
0.0
 11
82.6908139336
 21
45.2581132248
 31
0.0
  0
DIMENSION
  5
10F
330
1F
100
AcDbEntity
  8
DIM
100
AcDbDimension
  2
_D
 10
39.1679928525
 20
16.7051128568
 30
0.0
 11
39.1679928525
 21
24.366206458
 31
0.0
 70
   160
  1
<>
 71
     2
 42
-1.0
  3
SLDDIMSTYLE0
100
AcDbAlignedDimension
 13
45.1057361825
 23
41.0835128568
 33
0.0
 14
45.1057361825
 24
16.7051128568
 34
0.0
 50
90.0
100
AcDbRotatedDimension
  0
DIMENSION
  5
11F
330
1F
100
AcDbEntity
  8
DIM
100
AcDbDimension
  2
_D_1
 10
34.6679928525
 20
48.326043334
 30
0.0
 11
34.6679928525
 21
29.4850780954
 31
0.0
 70
   160
  1
<>
 71
     2
 42
-1.0
  3
SLDDIMSTYLE0
100
AcDbAlignedDimension
 13
43.6575488808
 23
10.6441128568
 33
0.0
 14
52.8485645054
 24
48.326043334
 34
0.0
 50
90.0
100
AcDbRotatedDimension
  0
DIMENSION
  5
12E
330
1F
100
AcDbEntity
  8
DIM
100
AcDbDimension
  2
_D_2
 10
81.2349361825
 20
29.4850780954
 30
0.0
 11
62.9129261146
 21
29.4850780954
 31
0.0
 70
   160
  1
<>
 71
     2
 42
-1.0
  3
SLDDIMSTYLE0
100
AcDbAlignedDimension
 13
45.1057361825
 23
41.0835128568
 33
0.0
 14
81.2349361825
 24
41.0835128568
 34
0.0
100
AcDbRotatedDimension
  0
DIMENSION
  5
13B
330
1F
100
AcDbEntity
  8
DIM
100
AcDbDimension
  2
_D_3
 10
43.5928361825
 20
7.1441128568
 30
0.0
 11
63.1703361825
 21
7.1441128568
 31
0.0
 70
   160
  1
<>
 71
     2
 42
-1.0
  3
SLDDIMSTYLE0
100
AcDbAlignedDimension
 13
82.7478361825
 23
11.2125499293
 33
0.0
 14
43.5928361825
 24
11.2125499293
 34
0.0
 50
0.0
100
AcDbRotatedDimension
  0
LINE
  5
14A
330
1F
100
AcDbEntity
  8
SLD-0
  6
Continuous
370
    15
100
AcDbLine
 10
23.4063195655
 20
48.3260440772
 30
0.0
 11
6.5313191736
 21
48.3260440772
 31
0.0
  0
LINE
  5
14B
330
1F
100
AcDbEntity
  8
SLD-0
  6
Continuous
370
    15
100
AcDbLine
 10
23.381719743
 20
16.1195129031
 30
0.0
 11
23.381719743
 21
11.897949936
 31
0.0
  0
LINE
  5
14C
330
1F
100
AcDbEntity
  8
SLD-0
  6
Continuous
370
    15
100
AcDbLine
 10
23.381719743
 20
16.1195129031
 30
0.0
 11
23.8197188432
 21
16.1195129031
 31
0.0
  0
LINE
  5
14D
330
1F
100
AcDbEntity
  8
SLD-0
  6
Continuous
370
    15
100
AcDbLine
 10
23.8197188432
 20
16.1195129031
 30
0.0
 11
23.8197188432
 21
19.9945126454
 31
0.0
  0
LINE
  5
14E
330
1F
100
AcDbEntity
  8
SLD-0
  6
Continuous
370
    15
100
AcDbLine
 10
23.8197188432
 20
19.9945126454
 30
0.0
 11
23.381719743
 21
19.9945126454
 31
0.0
  0
LINE
  5
14F
330
1F
100
AcDbEntity
  8
SLD-0
  6
Continuous
370
    15
100
AcDbLine
 10
23.381719743
 20
35.9835131658
 30
0.0
 11
23.381719743
 21
19.9945126454
 31
0.0
  0
LINE
  5
150
330
1F
100
AcDbEntity
  8
SLD-0
  6
Continuous
370
    15
100
AcDbLine
 10
23.381719743
 20
35.9835131658
 30
0.0
 11
23.8197188432
 21
35.9835131658
 31
0.0
  0
LINE
  5
151
330
1F
100
AcDbEntity
  8
SLD-0
  6
Continuous
370
    15
100
AcDbLine
 10
23.8197188432
 20
35.9835131658
 30
0.0
 11
23.8197188432
 21
39.8585120282
 31
0.0
  0
LINE
  5
152
330
1F
100
AcDbEntity
  8
SLD-0
  6
Continuous
370
    15
100
AcDbLine
 10
23.8197188432
 20
39.8585120282
 30
0.0
 11
23.381719743
 21
39.8585120282
 31
0.0
  0
LINE
  5
153
330
1F
100
AcDbEntity
  8
SLD-0
  6
Continuous
370
    15
100
AcDbLine
 10
23.381719743
 20
44.1602754538
 30
0.0
 11
23.381719743
 21
39.8585120282
 31
0.0
  0
LINE
  5
154
330
1F
100
AcDbEntity
  8
SLD-0
  6
Continuous
370
    15
100
AcDbLine
 10
24.0671191852
 20
44.845674896
 30
0.0
 11
24.0671191852
 21
11.2125499254
 31
0.0
  0
LINE
  5
155
330
1F
100
AcDbEntity
  8
SLD-0
  6
Continuous
370
    15
100
AcDbLine
 10
23.381719743
 20
44.1602754538
 30
0.0
 11
24.0671191852
 21
44.845674896
 31
0.0
  0
LINE
  5
156
330
1F
100
AcDbEntity
  8
SLD-0
  6
Continuous
370
    15
100
AcDbLine
 10
24.0671191852
 20
11.2125499254
 30
0.0
 11
23.381719743
 21
11.897949936
 31
0.0
  0
SPLINE
  5
157
330
1F
100
AcDbEntity
  8
SLD-0
  6
Continuous
370
    15
100
AcDbSpline
210
0.0
220
0.0
230
1.0
 70
     8
 71
     3
 72
    11
 73
     7
 74
     0
 42
0.00000001
 43
0.00000001
 12
1.0
 22
0.0
 32
0.0
 13
1.0
 23
0.0
 33
0.0
 40
0.0
 40
0.0
 40
0.0
 40
0.0
 40
0.250019733181333
 40
0.5000098394512502
 40
0.7500116779385095
 40
1.0
 40
1.0
 40
1.0
 40
1.0
 10
24.06711918521378
 20
44.84567489603288
 30
0.0
 10
24.07118141788431
 20
44.8511848165653
 30
0.0
 10
24.07930540185775
 20
44.86220400471397
 30
0.0
 10
24.08955199519708
 20
44.87873252375611
 30
0.0
 10
24.09672190889307
 20
44.89525880420761
 30
0.0
 10
24.0976536227574
 20
44.90627754889576
 30
0.0
 10
24.09811946709588
 20
44.91178677230284
 30
0.0
  0
LINE
  5
158
330
1F
100
AcDbEntity
  8
SLD-0
  6
Continuous
370
    15
100
AcDbLine
 10
24.0981194671
 20
44.9117867723
 30
0.0
 11
24.1317186523
 21
44.9117867723
 31
0.0
  0
SPLINE
  5
159
330
1F
100
AcDbEntity
  8
SLD-0
  6
Continuous
370
    15
100
AcDbSpline
210
0.0
220
0.0
230
1.0
 70
     8
 71
     3
 72
    11
 73
     7
 74
     0
 42
0.00000001
 43
0.00000001
 12
1.0
 22
0.0
 32
0.0
 13
1.0
 23
0.0
 33
0.0
 40
0.0
 40
0.0
 40
0.0
 40
0.0
 40
0.2500124671205364
 40
0.5000115881407363
 40
0.7500061878800297
 40
1.0
 40
1.0
 40
1.0
 40
1.0
 10
24.06711918521378
 20
44.84567489603288
 30
0.0
 10
24.07558425110004
 20
44.85118494326998
 30
0.0
 10
24.0925139309926
 20
44.86220474360827
 30
0.0
 10
24.11386824828308
 20
44.87873172158715
 30
0.0
 10
24.12880513958448
 20
44.89525940608664
 30
0.0
 10
24.13074748240711
 20
44.90627765601637
 30
0.0
 10
24.13171865228856
 20
44.91178677230285
 30
0.0
  0
SPLINE
  5
15A
330
1F
100
AcDbEntity
  8
SLD-0
  6
Continuous
370
    15
100
AcDbSpline
210
0.0
220
0.0
230
1.0
 70
     8
 71
     3
 72
    11
 73
     7
 74
     0
 42
0.00000001
 43
0.00000001
 12
1.0
 22
0.0
 32
0.0
 13
1.0
 23
0.0
 33
0.0
 40
0.0
 40
0.0
 40
0.0
 40
0.0
 40
0.2499963970259453
 40
0.4999937484312557
 40
0.749995454313165
 40
1.0
 40
1.0
 40
1.0
 40
1.0
 10
24.13171865228855
 20
11.14643826915673
 30
0.0
 10
24.13074748763443
 20
11.15194756326694
 30
0.0
 10
24.12880515461871
 20
11.16296617251951
 30
0.0
 10
24.11386817757751
 20
11.17949427330312
 30
0.0
 10
24.09251452286222
 20
11.19602207336456
 30
0.0
 10
24.07558432981515
 20
11.20704062054758
 30
0.0
 10
24.06711918521378
 20
11.21254992542923
 30
0.0
  0
LINE
  5
15B
330
1F
100
AcDbEntity
  8
SLD-0
  6
Continuous
370
    15
100
AcDbLine
 10
24.1317186523
 20
11.1464382692
 30
0.0
 11
24.1317186523
 21
44.9117867723
 31
0.0
  0
LINE
  5
15C
330
1F
100
AcDbEntity
  8
SLD-0
  6
Continuous
370
    15
100
AcDbLine
 10
24.0981194671
 20
11.1464382692
 30
0.0
 11
24.1317186523
 21
11.1464382692
 31
0.0
  0
SPLINE
  5
15D
330
1F
100
AcDbEntity
  8
SLD-0
  6
Continuous
370
    15
100
AcDbSpline
210
0.0
220
0.0
230
1.0
 70
     8
 71
     3
 72
    11
 73
     7
 74
     0
 42
0.00000001
 43
0.00000001
 12
1.0
 22
0.0
 32
0.0
 13
1.0
 23
0.0
 33
0.0
 40
0.0
 40
0.0
 40
0.0
 40
0.0
 40
0.2499939204371771
 40
0.5000017182227889
 40
0.7499974228361711
 40
1.0
 40
1.0
 40
1.0
 40
1.0
 10
24.09811946709588
 20
11.14643826915673
 30
0.0
 10
24.09765362819212
 20
11.15194766702061
 30
0.0
 10
24.09672192452555
 20
11.16296676857916
 30
0.0
 10
24.0895519216943
 20
11.17949352009462
 30
0.0
 10
24.07930601695974
 20
11.19602232657721
 30
0.0
 10
24.07118149968666
 20
11.20704067532894
 30
0.0
 10
24.06711918521378
 20
11.21254992542923
 30
0.0
  0
LINE
  5
15E
330
1F
100
AcDbEntity
  8
SLD-0
  6
Continuous
370
    15
100
AcDbLine
 10
24.0981194671
 20
11.1463255571
 30
0.0
 11
24.1317186523
 21
11.1463255571
 31
0.0
  0
LINE
  5
15F
330
1F
100
AcDbEntity
  8
SLD-0
  6
Continuous
370
    15
100
AcDbLine
 10
24.0981194671
 20
11.1464382692
 30
0.0
 11
24.0981194671
 21
11.1463255571
 31
0.0
  0
LINE
  5
160
330
1F
100
AcDbEntity
  8
SLD-0
  6
Continuous
370
    15
100
AcDbLine
 10
24.1317186523
 20
11.1464382692
 30
0.0
 11
24.1317186523
 21
11.1463255571
 31
0.0
  0
LINE
  5
161
330
1F
100
AcDbEntity
  8
SLD-0
  6
Continuous
370
    15
100
AcDbLine
 10
24.0981194671
 20
44.911899411
 30
0.0
 11
24.0981194671
 21
44.9117867723
 31
0.0
  0
LINE
  5
162
330
1F
100
AcDbEntity
  8
SLD-0
  6
Continuous
370
    15
100
AcDbLine
 10
24.0981194671
 20
44.911899411
 30
0.0
 11
24.1317186523
 21
44.911899411
 31
0.0
  0
LINE
  5
163
330
1F
100
AcDbEntity
  8
SLD-0
  6
Continuous
370
    15
100
AcDbLine
 10
24.1317186523
 20
44.911899411
 30
0.0
 11
24.1317186523
 21
44.9117867723
 31
0.0
  0
LINE
  5
164
330
1F
100
AcDbEntity
  8
SLD-0
  6
Continuous
370
    15
100
AcDbLine
 10
23.381719743
 20
45.3805139442
 30
0.0
 11
23.381719743
 21
45.4141131294
 31
0.0
  0
LINE
  5
165
330
1F
100
AcDbEntity
  8
SLD-0
  6
Continuous
370
    15
100
AcDbLine
 10
23.381719743
 20
45.4141131294
 30
0.0
 11
24.0671191852
 21
45.4141131294
 31
0.0
  0
LINE
  5
166
330
1F
100
AcDbEntity
  8
SLD-0
  6
Continuous
370
    15
100
AcDbLine
 10
24.0671191852
 20
45.3805139442
 30
0.0
 11
24.0671191852
 21
45.4141131294
 31
0.0
  0
LINE
  5
167
330
1F
100
AcDbEntity
  8
SLD-0
  6
Continuous
370
    15
100
AcDbLine
 10
23.381719743
 20
45.3805139442
 30
0.0
 11
24.0671191852
 21
45.3805139442
 31
0.0
  0
LINE
  5
168
330
1F
100
AcDbEntity
  8
SLD-0
  6
Continuous
370
    15
100
AcDbLine
 10
24.0671191852
 20
10.6777128206
 30
0.0
 11
24.0671191852
 21
10.6441128287
 31
0.0
  0
LINE
  5
169
330
1F
100
AcDbEntity
  8
SLD-0
  6
Continuous
370
    15
100
AcDbLine
 10
23.381719743
 20
10.6441128287
 30
0.0
 11
24.0671191852
 21
10.6441128287
 31
0.0
  0
LINE
  5
16A
330
1F
100
AcDbEntity
  8
SLD-0
  6
Continuous
370
    15
100
AcDbLine
 10
23.381719743
 20
10.6777128206
 30
0.0
 11
23.381719743
 21
10.6441128287
 31
0.0
  0
LINE
  5
16B
330
1F
100
AcDbEntity
  8
SLD-0
  6
Continuous
370
    15
100
AcDbLine
 10
23.381719743
 20
10.6777128206
 30
0.0
 11
24.0671191852
 21
10.6777128206
 31
0.0
  0
LINE
  5
16C
330
1F
100
AcDbEntity
  8
SLD-0
  6
Continuous
370
    15
100
AcDbLine
 10
24.0981194671
 20
45.349512489
 30
0.0
 11
24.1317186523
 21
45.349512489
 31
0.0
  0
LINE
  5
16D
330
1F
100
AcDbEntity
  8
SLD-0
  6
Continuous
370
    15
100
AcDbLine
 10
24.0981194671
 20
44.911899411
 30
0.0
 11
24.0981194671
 21
45.349512489
 31
0.0
  0
LINE
  5
16E
330
1F
100
AcDbEntity
  8
SLD-0
  6
Continuous
370
    15
100
AcDbLine
 10
24.1317186523
 20
45.349512489
 30
0.0
 11
24.1317186523
 21
44.911899411
 31
0.0
  0
ARC
  5
16F
330
1F
100
AcDbEntity
  8
SLD-0
  6
Continuous
370
    15
100
AcDbCircle
 10
24.0671192164
 20
45.3495128568
 30
0.0
 40
0.0310000000000059
100
AcDbArc
 50
0.0
 51
90.0
  0
ARC
  5
170
330
1F
100
AcDbEntity
  8
SLD-0
  6
Continuous
370
    15
100
AcDbCircle
 10
24.0671192164
 20
45.3495128568
 30
0.0
 40
0.0646000000000058
100
AcDbArc
 50
0.0
 51
90.0
  0
LINE
  5
171
330
1F
100
AcDbEntity
  8
SLD-0
  6
Continuous
370
    15
100
AcDbLine
 10
24.0981194671
 20
10.7087128825
 30
0.0
 11
24.1317186523
 21
10.7087128825
 31
0.0
  0
LINE
  5
172
330
1F
100
AcDbEntity
  8
SLD-0
  6
Continuous
370
    15
100
AcDbLine
 10
24.0981194671
 20
10.7087128825
 30
0.0
 11
24.0981194671
 21
11.1463255571
 31
0.0
  0
LINE
  5
173
330
1F
100
AcDbEntity
  8
SLD-0
  6
Continuous
370
    15
100
AcDbLine
 10
24.1317186523
 20
11.1463255571
 30
0.0
 11
24.1317186523
 21
10.7087128825
 31
0.0
  0
ARC
  5
174
330
1F
100
AcDbEntity
  8
SLD-0
  6
Continuous
370
    15
100
AcDbCircle
 10
24.0671192164
 20
10.7087128568
 30
0.0
 40
0.0310000000000059
100
AcDbArc
 50
270.0
 51
0.0
  0
ARC
  5
175
330
1F
100
AcDbEntity
  8
SLD-0
  6
Continuous
370
    15
100
AcDbCircle
 10
24.0671192164
 20
10.7087128568
 30
0.0
 40
0.0646000000000129
100
AcDbArc
 50
270.0
 51
0.0
  0
LWPOLYLINE
  5
176
330
1F
100
AcDbEntity
  8
SLD-0
  6
Continuous
370
    15
100
AcDbPolyline
 90
        9
 70
   128
 43
0.0
 10
24.5976509765
 20
40.9034424637
 10
24.6038437583
 20
40.9096352455
 10
24.6098018761
 20
40.9155910167
 10
24.615290666
 20
40.9210798066
 10
24.6201012771
 20
40.9258927644
 10
24.6240483249
 20
40.9298398121
 10
24.6269839709
 20
40.9327731115
 10
24.6287908834
 20
40.934580024
 10
24.6294010097
 20
40.9351901503
  0
LINE
  5
177
330
1F
100
AcDbEntity
  8
SLD-0
  6
Continuous
370
    15
100
AcDbLine
 10
24.6294010097
 20
40.9351901503
 30
0.0
 11
26.7463280214
 21
38.8182631385
 31
0.0
  0
SPLINE
  5
178
330
1F
100
AcDbEntity
  8
SLD-0
  6
Continuous
370
    15
100
AcDbSpline
210
0.0
220
0.0
230
1.0
 70
     8
 71
     3
 72
    11
 73
     7
 74
     0
 42
0.00000001
 43
0.00000001
 12
1.0
 22
0.0
 32
0.0
 13
1.0
 23
0.0
 33
0.0
 40
0.0
 40
0.0
 40
0.0
 40
0.0
 40
0.2582827669368546
 40
0.5167719002711273
 40
0.7752213710255685
 40
1.0
 40
1.0
 40
1.0
 40
1.0
 10
26.74632802143134
 20
38.81826313854117
 30
0.0
 10
26.74295333737699
 20
38.82061828102142
 30
0.0
 10
26.73620127291575
 20
38.82533044772679
 30
0.0
 10
26.71977701129281
 20
38.826101871147
 30
0.0
 10
26.70092284622032
 20
38.82371012356181
 30
0.0
 10
26.6875380871711
 20
38.82102870456257
 30
0.0
 10
26.68131202583501
 20
38.81978141433526
 30
0.0
  0
LINE
  5
179
330
1F
100
AcDbEntity
  8
SLD-0
  6
Continuous
370
    15
100
AcDbLine
 10
26.6813120258
 20
38.8197814143
 30
0.0
 11
24.5976509765
 21
40.9034424637
 31
0.0
  0
SPLINE
  5
17A
330
1F
100
AcDbEntity
  8
SLD-0
  6
Continuous
370
    15
100
AcDbSpline
210
0.0
220
0.0
230
1.0
 70
     8
 71
     3
 72
     9
 73
     5
 74
     0
 42
0.00000001
 43
0.00000001
 12
1.0
 22
0.0
 32
0.0
 13
1.0
 23
0.0
 33
0.0
 40
0.0
 40
0.0
 40
0.0
 40
0.0
 40
0.5000012696900354
 40
1.0
 40
1.0
 40
1.0
 40
1.0
 10
26.72518479901299
 20
38.79712226276237
 30
0.0
 10
26.71897090860658
 20
38.80199701240188
 30
0.0
 10
26.70654315935253
 20
38.81174648692327
 30
0.0
 10
26.68972238943607
 20
38.81710310973209
 30
0.0
 10
26.68131202583501
 20
38.81978141433526
 30
0.0
  0
LINE
  5
17B
330
1F
100
AcDbEntity
  8
SLD-0
  6
Continuous
370
    15
100
AcDbLine
 10
26.725184799
 20
38.7971222628
 30
0.0
 11
26.7463280214
 21
38.8182631385
 31
0.0
  0
LINE
  5
17C
330
1F
100
AcDbEntity
  8
SLD-0
  6
Continuous
370
    15
100
AcDbLine
 10
24.1317186523
 20
40.9034424637
 30
0.0
 11
24.5976509765
 21
40.9034424637
 31
0.0
  0
LINE
  5
17D
330
1F
100
AcDbEntity
  8
SLD-0
  6
Continuous
370
    15
100
AcDbLine
 10
24.1317186523
 20
38.8197814143
 30
0.0
 11
26.6813120258
 21
38.8197814143
 31
0.0
  0
SPLINE
  5
17E
330
1F
100
AcDbEntity
  8
SLD-0
  6
Continuous
370
    15
100
AcDbSpline
210
0.0
220
0.0
230
1.0
 70
     8
 71
     3
 72
     9
 73
     5
 74
     0
 42
0.00000001
 43
0.00000001
 12
1.0
 22
0.0
 32
0.0
 13
1.0
 23
0.0
 33
0.0
 40
0.0
 40
0.0
 40
0.0
 40
0.0
 40
0.5000086301728389
 40
1.0
 40
1.0
 40
1.0
 40
1.0
 10
26.72240168449709
 20
38.79433680160692
 30
0.0
 10
26.72356131954852
 20
38.79410466782419
 30
0.0
 10
26.72588054962063
 20
38.793640408272
 30
0.0
 10
26.72541671321354
 20
38.7959616579541
 30
0.0
 10
26.72518479901299
 20
38.79712226276238
 30
0.0
  0
LINE
  5
17F
330
1F
100
AcDbEntity
  8
SLD-0
  6
Continuous
370
    15
100
AcDbLine
 10
26.7012584621
 20
38.7731959258
 30
0.0
 11
26.7224016845
 21
38.7943368016
 31
0.0
  0
SPLINE
  5
180
330
1F
100
AcDbEntity
  8
SLD-0
  6
Continuous
370
    15
100
AcDbSpline
210
0.0
220
0.0
230
1.0
 70
     8
 71
     3
 72
    15
 73
    11
 74
     0
 42
0.00000001
 43
0.00000001
 12
1.0
 22
0.0
 32
0.0
 13
1.0
 23
0.0
 33
0.0
 40
0.0
 40
0.0
 40
0.0
 40
0.0
 40
0.1250040127740779
 40
0.2500094528275905
 40
0.3750099901925079
 40
0.5000189055188797
 40
0.6249974643542712
 40
0.7500029044077837
 40
0.8750214411646086
 40
1.0
 40
1.0
 40
1.0
 40
1.0
 10
26.70125846207874
 20
38.77319592582813
 30
0.0
 10
26.70454674533363
 20
38.77058526689751
 30
0.0
 10
26.71112334938859
 20
38.76536391922809
 30
0.0
 10
26.72383481075018
 20
38.76307280617859
 30
0.0
 10
26.7362960330843
 20
38.76551085707702
 30
0.0
 10
26.74691420432547
 20
38.77260841851966
 30
0.0
 10
26.75401100494733
 20
38.78322692395223
 30
0.0
 10
26.75644876864905
 20
38.79568648980788
 30
0.0
 10
26.75415799911828
 20
38.80839988482175
 30
0.0
 10
26.74893773573006
 20
38.81497573782402
 30
0.0
 10
26.74632802143135
 20
38.81826313854118
 30
0.0
  0
LINE
  5
181
330
1F
100
AcDbEntity
  8
SLD-0
  6
Continuous
370
    15
100
AcDbLine
 10
24.5976509765
 20
40.9184421838
 30
0.0
 11
24.5976509765
 21
40.9483407184
 31
0.0
  0
LINE
  5
182
330
1F
100
AcDbEntity
  8
SLD-0
  6
Continuous
370
    15
100
AcDbLine
 10
24.1317186523
 20
40.9184421838
 30
0.0
 11
24.5976509765
 21
40.9184421838
 31
0.0
  0
LINE
  5
183
330
1F
100
AcDbEntity
  8
SLD-0
  6
Continuous
370
    15
100
AcDbLine
 10
24.1317186523
 20
40.9483407184
 30
0.0
 11
24.5976509765
 21
40.9483407184
 31
0.0
  0
ARC
  5
184
330
1F
100
AcDbEntity
  8
SLD-0
  6
Continuous
370
    15
100
AcDbCircle
 10
24.5976509177
 20
40.9034417594
 30
0.0
 40
0.0150000000000006
100
AcDbArc
 50
45.0
 51
90.0
  0
ARC
  5
185
330
1F
100
AcDbEntity
  8
SLD-0
  6
Continuous
370
    15
100
AcDbCircle
 10
24.5976509177
 20
40.9034417594
 30
0.0
 40
0.0448999999999964
100
AcDbArc
 50
45.0
 51
90.0
  0
LINE
  5
186
330
1F
100
AcDbEntity
  8
SLD-0
  6
Continuous
370
    15
100
AcDbLine
 10
26.7224016845
 20
38.7943368016
 30
0.0
 11
26.70749583
 21
38.8092426561
 31
0.0
  0
LINE
  5
187
330
1F
100
AcDbEntity
  8
SLD-0
  6
Continuous
370
    15
100
AcDbLine
 10
26.7012584621
 20
38.7731959258
 30
0.0
 11
26.6546729736
 21
38.8197814143
 31
0.0
  0
LINE
  5
188
330
1F
100
AcDbEntity
  8
SLD-0
  6
Continuous
370
    15
100
AcDbLine
 10
24.0357188013
 20
45.2560129824
 30
0.0
 11
24.0417191586
 21
45.2560129824
 31
0.0
  0
LINE
  5
189
330
1F
100
AcDbEntity
  8
SLD-0
  6
Continuous
370
    15
100
AcDbLine
 10
24.0417191586
 20
45.2560129824
 30
0.0
 11
24.0417191586
 21
44.8202748695
 31
0.0
  0
LINE
  5
18A
330
1F
100
AcDbEntity
  8
SLD-0
  6
Continuous
370
    15
100
AcDbLine
 10
16.7091405052
 20
11.0390249867
 30
0.0
 11
16.7135486676
 21
11.0386599376
 31
0.0
  0
LINE
  5
18B
330
1F
100
AcDbEntity
  8
SLD-0
  6
Continuous
370
    15
100
AcDbLine
 10
21.1012507272
 20
45.2581132248
 30
0.0
 11
21.1012507272
 21
10.7201128574
 31
0.0
  0
LINE
  5
18C
330
1F
100
AcDbEntity
  8
SLD-0
  6
Continuous
370
    15
100
AcDbLine
 10
24.0357188013
 20
45.2581132248
 30
0.0
 11
24.0357188013
 21
44.8142768587
 31
0.0
  0
LINE
  5
18D
330
1F
100
AcDbEntity
  8
SLD-0
  6
Continuous
370
    15
100
AcDbLine
 10
24.0357188013
 20
11.2439499427
 30
0.0
 11
24.0357188013
 21
10.7201128574
 31
0.0
  0
LINE
  5
18E
330
1F
100
AcDbEntity
  8
SLD-0
  6
Continuous
370
    15
100
AcDbLine
 10
24.0357188013
 20
10.7201128574
 30
0.0
 11
23.2707189986
 21
10.7201128574
 31
0.0
  0
LINE
  5
18F
330
1F
100
AcDbEntity
  8
SLD-0
  6
Continuous
370
    15
100
AcDbLine
 10
22.8957189573
 20
10.7201128574
 30
0.0
 11
21.5827189786
 21
10.7201128574
 31
0.0
  0
LINE
  5
190
330
1F
100
AcDbEntity
  8
SLD-0
  6
Continuous
370
    15
100
AcDbLine
 10
21.202661929
 20
10.7201128574
 30
0.0
 11
21.1012507272
 21
10.7201128574
 31
0.0
  0
LINE
  5
191
330
1F
100
AcDbEntity
  8
SLD-0
  6
Continuous
370
    15
100
AcDbLine
 10
24.0357188013
 20
45.2581132248
 30
0.0
 11
23.2707189986
 21
45.2581132248
 31
0.0
  0
LINE
  5
192
330
1F
100
AcDbEntity
  8
SLD-0
  6
Continuous
370
    15
100
AcDbLine
 10
22.8957189573
 20
45.2581132248
 30
0.0
 11
21.5827189786
 21
45.2581132248
 31
0.0
  0
LINE
  5
193
330
1F
100
AcDbEntity
  8
SLD-0
  6
Continuous
370
    15
100
AcDbLine
 10
21.202661929
 20
45.2581132248
 30
0.0
 11
21.1012507272
 21
45.2581132248
 31
0.0
  0
LINE
  5
194
330
1F
100
AcDbEntity
  8
SLD-0
  6
Continuous
370
    15
100
AcDbLine
 10
4.9574769714
 20
45.2581132248
 30
0.0
 11
4.9574769714
 21
10.7201128574
 31
0.0
  0
LINE
  5
195
330
1F
100
AcDbEntity
  8
SLD-0
  6
Continuous
370
    15
100
AcDbLine
 10
5.9372276233
 20
45.2581132248
 30
0.0
 11
4.9574769714
 21
45.2581132248
 31
0.0
  0
LWPOLYLINE
  5
196
330
1F
100
AcDbEntity
  8
SLD-0
  6
Continuous
370
    15
100
AcDbPolyline
 90
      102
 70
   128
 43
0.0
 10
10.9489939802
 20
19.9691126189
 10
10.947338426
 20
20.0235112438
 10
10.94237763
 20
20.0776992578
 10
10.9341309519
 20
20.1314672233
 10
10.9226306581
 20
20.1846068761
 10
10.9079201614
 20
20.2369128852
 10
10.8900581277
 20
20.2881828529
 10
10.8691120231
 20
20.3382184883
 10
10.8451639797
 20
20.3868261934
 10
10.8183061033
 20
20.4338176506
 10
10.7886422326
 20
20.4790109951
 10
10.7562873531
 20
20.5222319892
 10
10.7213664232
 20
20.5633134346
 10
10.6840149613
 20
20.6020957599
 10
10.6443766992
 20
20.6384287802
 10
10.6026059284
 20
20.6721728704
 10
10.5588639804
 20
20.7031966187
 10
10.5133198132
 20
20.7313803464
 10
10.4661500114
 20
20.7566149349
 10
10.4175364397
 20
20.7788029986
 10
10.3676674158
 20
20.7978588851
 10
10.3167365375
 20
20.8137080887
 10
10.2649397492
 20
20.8262895967
 10
10.2124782752
 20
20.835555303
 10
10.1595550999
 20
20.8414688347
 10
10.1063743809
 20
20.844007312
 10
10.0531420359
 20
20.8431607618
 10
10.0000639824
 20
20.838932704
 10
9.947346138
 20
20.831339565
 10
9.8951920739
 20
20.8204106779
 10
9.8438030142
 20
20.8061882822
 10
9.79337901
 20
20.7887275239
 10
9.7441136591
 20
20.7680958689
 10
9.6961987993
 20
20.7443725163
 10
9.6498192284
 20
20.717650745
 10
9.6051547577
 20
20.6880326338
 10
9.5623775719
 20
20.6556325815
 10
9.5216534023
 20
20.6205773064
 10
9.4831403539
 20
20.5830011538
 10
9.4469865582
 20
20.543050202
 10
9.4133325203
 20
20.5008787425
 10
9.3823081854
 20
20.4566504535
 10
9.3540335254
 20
20.4105354662
 10
9.3286179523
 20
20.362712712
 10
9.3061600251
 20
20.3133669887
 10
9.2867465693
 20
20.2626901341
 10
9.2704523842
 20
20.2108769193
 10
9.257340829
 20
20.1581285687
 10
9.2474626498
 20
20.1046486531
 10
9.2408556861
 20
20.0506448503
 10
9.2375460444
 20
19.9963254245
 10
9.2375460444
 20
19.9419003999
 10
9.2408556861
 20
19.8875809741
 10
9.2474626498
 20
19.8335771713
 10
9.257340829
 20
19.7800972557
 10
9.2704523842
 20
19.7273489051
 10
9.2867465693
 20
19.6755356903
 10
9.3061600251
 20
19.6248582491
 10
9.3286179523
 20
19.5755131124
 10
9.3540335254
 20
19.5276903582
 10
9.3823081854
 20
19.4815753709
 10
9.4133325203
 20
19.4373464952
 10
9.4469865582
 20
19.3951756224
 10
9.4831403539
 20
19.3552240839
 10
9.5216534023
 20
19.317648518
 10
9.5623775719
 20
19.2825926563
 10
9.6051547577
 20
19.2501931906
 10
9.6498192284
 20
19.2205750794
 10
9.6961987993
 20
19.1938527214
 10
9.7441136591
 20
19.1701299555
 10
9.79337901
 20
19.1494983005
 10
9.8438030142
 20
19.1320375422
 10
9.8951920739
 20
19.1178151465
 10
9.947346138
 20
19.1068862594
 10
10.0000639824
 20
19.0992931204
 10
10.0531420359
 20
19.0950650626
 10
10.1063743809
 20
19.0942185124
 10
10.1595550999
 20
19.0967569897
 10
10.2124782752
 20
19.1026705214
 10
10.2649397492
 20
19.1119356411
 10
10.3167365375
 20
19.1245177357
 10
10.3676674158
 20
19.1403669393
 10
10.4175364397
 20
19.1594222391
 10
10.4661500114
 20
19.1816103028
 10
10.5133198132
 20
19.206845478
 10
10.5588639804
 20
19.2350292057
 10
10.6026059284
 20
19.266052954
 10
10.6443766992
 20
19.2997970442
 10
10.6840149613
 20
19.3361300645
 10
10.7213664232
 20
19.3749123898
 10
10.7562873531
 20
19.4159932486
 10
10.7886422326
 20
19.4592142426
 10
10.8183061033
 20
19.5044081738
 10
10.8451639797
 20
19.551399631
 10
10.8691120231
 20
19.6000073361
 10
10.8900581277
 20
19.6500429715
 10
10.9079201614
 20
19.7013129392
 10
10.9226306581
 20
19.7536189483
 10
10.9341309519
 20
19.8067586011
 10
10.94237763
 20
19.8605265666
 10
10.947338426
 20
19.9147145806
 10
10.9489939802
 20
19.9691126189
  0
LINE
  5
197
330
1F
100
AcDbEntity
  8
SLD-0
  6
Continuous
370
    15
100
AcDbLine
 10
5.9372276233
 20
10.7201128574
 30
0.0
 11
4.9574769714
 21
10.7201128574
 31
0.0
  0
ARC
  5
198
330
1F
100
AcDbEntity
  8
SLD-0
  6
Continuous
370
    15
100
AcDbCircle
 10
10.1129119356
 20
19.9691145898
 30
0.0
 40
0.8751722979129545
100
AcDbArc
 50
91.1520586707
 51
268.8608488123
  0
LINE
  5
199
330
1F
100
AcDbEntity
  8
SLD-0
  6
Continuous
370
    15
100
AcDbLine
 10
4.9157192172
 20
45.1070459567
 30
0.0
 11
4.9157192172
 21
10.8711807123
 31
0.0
  0
LINE
  5
19A
330
1F
100
AcDbEntity
  8
SLD-0
  6
Continuous
370
    15
100
AcDbLine
 10
4.9574769714
 20
10.7201128574
 30
0.0
 11
4.9157192172
 21
10.7201128574
 31
0.0
  0
LINE
  5
19B
330
1F
100
AcDbEntity
  8
SLD-0
  6
Continuous
370
    15
100
AcDbLine
 10
4.9574769714
 20
45.2581132248
 30
0.0
 11
4.9157192172
 21
45.2581132248
 31
0.0
  0
LINE
  5
19C
330
1F
100
AcDbEntity
  8
SLD-0
  6
Continuous
370
    15
100
AcDbLine
 10
21.5827189786
 20
10.7371412474
 30
0.0
 11
21.5827189786
 21
10.7201128574
 31
0.0
  0
LINE
  5
19D
330
1F
100
AcDbEntity
  8
SLD-0
  6
Continuous
370
    15
100
AcDbLine
 10
21.5827189786
 20
10.7201128574
 30
0.0
 11
21.202661929
 21
10.7201128574
 31
0.0
  0
LINE
  5
19E
330
1F
100
AcDbEntity
  8
SLD-0
  6
Continuous
370
    15
100
AcDbLine
 10
21.7966621071
 20
11.3141128522
 30
0.0
 11
23.2707189986
 21
11.3141128522
 31
0.0
  0
LINE
  5
19F
330
1F
100
AcDbEntity
  8
SLD-0
  6
Continuous
370
    15
100
AcDbLine
 10
23.2707189986
 20
11.3141128522
 30
0.0
 11
23.2707189986
 21
10.7201128574
 31
0.0
  0
LINE
  5
1A0
330
1F
100
AcDbEntity
  8
SLD-0
  6
Continuous
370
    15
100
AcDbLine
 10
23.2707189986
 20
10.7201128574
 30
0.0
 11
22.8957189573
 21
10.7201128574
 31
0.0
  0
LINE
  5
1A1
330
1F
100
AcDbEntity
  8
SLD-0
  6
Continuous
370
    15
100
AcDbLine
 10
22.8957189573
 20
10.7201128574
 30
0.0
 11
22.8957189573
 21
10.7371412474
 31
0.0
  0
LINE
  5
1A2
330
1F
100
AcDbEntity
  8
SLD-0
  6
Continuous
370
    15
100
AcDbLine
 10
22.8957189573
 20
10.7371412474
 30
0.0
 11
21.5827189786
 21
10.7371412474
 31
0.0
  0
LINE
  5
1A3
330
1F
100
AcDbEntity
  8
SLD-0
  6
Continuous
370
    15
100
AcDbLine
 10
21.202661929
 20
10.7201128574
 30
0.0
 11
21.7966621071
 21
11.3141128522
 31
0.0
  0
SPLINE
  5
1A4
330
1F
100
AcDbEntity
  8
SLD-0
  6
Continuous
370
    15
100
AcDbSpline
210
0.0
220
0.0
230
1.0
 70
     8
 71
     3
 72
    11
 73
     7
 74
     0
 42
0.00000001
 43
0.00000001
 12
1.0
 22
0.0
 32
0.0
 13
1.0
 23
0.0
 33
0.0
 40
0.0
 40
0.0
 40
0.0
 40
0.0
 40
0.2500002594806189
 40
0.4999990047505971
 40
0.7500025960836781
 40
1.0
 40
1.0
 40
1.0
 40
1.0
 10
21.20266192900177
 20
10.72011285743759
 30
0.0
 10
21.19766673282383
 20
10.71320724151045
 30
0.0
 10
21.18767637072304
 20
10.69939605148236
 30
0.0
 10
21.17269043576681
 20
10.68197591603979
 30
0.0
 10
21.15770525369234
 20
10.66978951804135
 30
0.0
 10
21.14771462210674
 20
10.66820505474427
 30
0.0
 10
21.14271936813001
 20
10.66741283289944
 30
0.0
  0
LINE
  5
1A5
330
1F
100
AcDbEntity
  8
SLD-0
  6
Continuous
370
    15
100
AcDbLine
 10
21.1427193681
 20
10.6674128329
 30
0.0
 11
21.1427193681
 21
10.6891128689
 31
0.0
  0
SPLINE
  5
1A6
330
1F
100
AcDbEntity
  8
SLD-0
  6
Continuous
370
    15
100
AcDbSpline
210
0.0
220
0.0
230
1.0
 70
     8
 71
     3
 72
    11
 73
     7
 74
     0
 42
0.00000001
 43
0.00000001
 12
1.0
 22
0.0
 32
0.0
 13
1.0
 23
0.0
 33
0.0
 40
0.0
 40
0.0
 40
0.0
 40
0.0
 40
0.2499995662635404
 40
0.5000028193620545
 40
0.7499984411675314
 40
1.0
 40
1.0
 40
1.0
 40
1.0
 10
21.20266192900177
 20
10.72011285743759
 30
0.0
 10
21.1976666828543
 20
10.71605067590582
 30
0.0
 10
21.18767611689264
 20
10.70792625293578
 30
0.0
 10
21.1726909729488
 20
10.69767969600618
 30
0.0
 10
21.15770475777423
 20
10.69051066011394
 30
0.0
 10
21.14771453755311
 20
10.68957880298327
 30
0.0
 10
21.14271936813001
 20
10.68911286888544
 30
0.0
  0
LINE
  5
1A7
330
1F
100
AcDbEntity
  8
SLD-0
  6
Continuous
370
    15
100
AcDbLine
 10
21.5827189786
 20
10.6674128329
 30
0.0
 11
21.5827189786
 21
10.7201128574
 31
0.0
  0
LINE
  5
1A8
330
1F
100
AcDbEntity
  8
SLD-0
  6
Continuous
370
    15
100
AcDbLine
 10
21.5827189786
 20
10.6674128329
 30
0.0
 11
21.1427193681
 21
10.6674128329
 31
0.0
  0
LINE
  5
1A9
330
1F
100
AcDbEntity
  8
SLD-0
  6
Continuous
370
    15
100
AcDbLine
 10
23.2707189986
 20
10.6674128329
 30
0.0
 11
22.8957189573
 21
10.6674128329
 31
0.0
  0
LINE
  5
1AA
330
1F
100
AcDbEntity
  8
SLD-0
  6
Continuous
370
    15
100
AcDbLine
 10
22.8957189573
 20
10.7201128574
 30
0.0
 11
22.8957189573
 21
10.6674128329
 31
0.0
  0
LINE
  5
1AB
330
1F
100
AcDbEntity
  8
SLD-0
  6
Continuous
370
    15
100
AcDbLine
 10
23.2707189986
 20
10.6674128329
 30
0.0
 11
23.2707189986
 21
10.7201128574
 31
0.0
  0
SPLINE
  5
1AC
330
1F
100
AcDbEntity
  8
SLD-0
  6
Continuous
370
    15
100
AcDbSpline
210
0.0
220
0.0
230
1.0
 70
     8
 71
     3
 72
    11
 73
     7
 74
     0
 42
0.00000001
 43
0.00000001
 12
1.0
 22
0.0
 32
0.0
 13
1.0
 23
0.0
 33
0.0
 40
0.0
 40
0.0
 40
0.0
 40
0.0
 40
0.2499999094198755
 40
0.5000050118117052
 40
0.7499961873727203
 40
1.0
 40
1.0
 40
1.0
 40
1.0
 10
5.937227623268186
 20
10.72011285743759
 30
0.0
 10
5.936356823090708
 20
10.71320717905597
 30
0.0
 10
5.934615204647584
 20
10.6993956788487
 30
0.0
 10
5.93403518875015
 20
10.68197664891584
 30
0.0
 10
5.934539638103076
 20
10.66978909124068
 30
0.0
 10
5.935331170879717
 20
10.6682049323594
 30
0.0
 10
5.935726947270791
 20
10.66741283289944
 30
0.0
  0
LINE
  5
1AD
330
1F
100
AcDbEntity
  8
SLD-0
  6
Continuous
370
    15
100
AcDbLine
 10
5.9372276233
 20
10.7201128574
 30
0.0
 11
21.0936558282
 21
10.7201128574
 31
0.0
  0
SPLINE
  5
1AE
330
1F
100
AcDbEntity
  8
SLD-0
  6
Continuous
370
    15
100
AcDbSpline
210
0.0
220
0.0
230
1.0
 70
     8
 71
     3
 72
    12
 73
     8
 74
     0
 42
0.00000001
 43
0.00000001
 12
1.0
 22
0.0
 32
0.0
 13
1.0
 23
0.0
 33
0.0
 40
0.0
 40
0.0
 40
0.0
 40
0.0
 40
0.237400080328299
 40
0.4749188021428546
 40
0.712436117471599
 40
0.9499618970843565
 40
1.0
 40
1.0
 40
1.0
 40
1.0
 10
21.14271936813001
 20
10.66741283289944
 30
0.0
 10
21.13834283573046
 20
10.6681262276622
 30
0.0
 10
21.12958758374461
 20
10.66955337370914
 30
0.0
 10
21.11701100863338
 20
10.68059848165001
 30
0.0
 10
21.10549389543939
 20
10.69654636882132
 30
0.0
 10
21.09797458082412
 20
10.71084173608483
 30
0.0
 10
21.09429593759461
 20
10.71873872652488
 30
0.0
 10
21.09365582824955
 20
10.72011285743759
 30
0.0
  0
LINE
  5
1AF
330
1F
100
AcDbEntity
  8
SLD-0
  6
Continuous
370
    15
100
AcDbLine
 10
21.1427193681
 20
10.6674128329
 30
0.0
 11
5.9357269473
 21
10.6674128329
 31
0.0
  0
LINE
  5
1B0
330
1F
100
AcDbEntity
  8
SLD-0
  6
Continuous
370
    15
100
AcDbLine
 10
21.0936558282
 20
10.7201128574
 30
0.0
 11
21.0981519896
 21
10.7201128574
 31
0.0
  0
SPLINE
  5
1B1
330
1F
100
AcDbEntity
  8
SLD-0
  6
Continuous
370
    15
100
AcDbSpline
210
0.0
220
0.0
230
1.0
 70
     8
 71
     3
 72
    11
 73
     7
 74
     0
 42
0.00000001
 43
0.00000001
 12
1.0
 22
0.0
 32
0.0
 13
1.0
 23
0.0
 33
0.0
 40
0.0
 40
0.0
 40
0.0
 40
0.0
 40
0.2752348322582499
 40
0.5508032541314676
 40
0.826377880917585
 40
1.0
 40
1.0
 40
1.0
 40
1.0
 10
21.14271936813001
 20
10.68911286888544
 30
0.0
 10
21.13829099194398
 20
10.68967991310906
 30
0.0
 10
21.12942887229956
 20
10.6908146888242
 30
0.0
 10
21.11666647304853
 20
10.69944969911946
 30
0.0
 10
21.10621612703287
 20
10.71002112241108
 30
0.0
 10
21.10040001503356
 20
10.71729960222147
 30
0.0
 10
21.09815198964284
 20
10.72011285743759
 30
0.0
  0
LINE
  5
1B2
330
1F
100
AcDbEntity
  8
SLD-0
  6
Continuous
370
    15
100
AcDbLine
 10
20.7156638215
 20
11.3141128522
 30
0.0
 11
21.0936558282
 21
10.7201128574
 31
0.0
  0
LINE
  5
1B3
330
1F
100
AcDbEntity
  8
SLD-0
  6
Continuous
370
    15
100
AcDbLine
 10
5.9372276233
 20
10.7201128574
 30
0.0
 11
6.0602958149
 21
11.3141128522
 31
0.0
  0
LINE
  5
1B4
330
1F
100
AcDbEntity
  8
SLD-0
  6
Continuous
370
    15
100
AcDbLine
 10
20.7156638215
 20
11.3141128522
 30
0.0
 11
6.0602958149
 21
11.3141128522
 31
0.0
  0
LINE
  5
1B5
330
1F
100
AcDbEntity
  8
SLD-0
  6
Continuous
370
    15
100
AcDbLine
 10
20.7156638215
 20
11.3141128522
 30
0.0
 11
20.7201599829
 21
11.3141128522
 31
0.0
  0
LINE
  5
1B6
330
1F
100
AcDbEntity
  8
SLD-0
  6
Continuous
370
    15
100
AcDbLine
 10
20.7201599829
 20
11.3141128522
 30
0.0
 11
21.0981519896
 21
10.7201128574
 31
0.0
  0
LINE
  5
1B7
330
1F
100
AcDbEntity
  8
SLD-0
  6
Continuous
370
    15
100
AcDbLine
 10
24.0497188529
 20
10.6891128689
 30
0.0
 11
23.2707189986
 21
10.6891128689
 31
0.0
  0
LINE
  5
1B8
330
1F
100
AcDbEntity
  8
SLD-0
  6
Continuous
370
    15
100
AcDbLine
 10
23.381719743
 20
10.6674128329
 30
0.0
 11
23.2707189986
 21
10.6674128329
 31
0.0
  0
ARC
  5
1B9
330
1F
100
AcDbEntity
  8
SLD-0
  6
Continuous
370
    15
100
AcDbCircle
 10
24.0497192164
 20
10.7201128568
 30
0.0
 40
0.0310000000000059
100
AcDbArc
 50
270.0
 51
0.0
  0
LINE
  5
1BA
330
1F
100
AcDbEntity
  8
SLD-0
  6
Continuous
370
    15
100
AcDbLine
 10
24.0807191348
 20
10.7201128574
 30
0.0
 11
24.0807191348
 21
11.1891128628
 31
0.0
  0
LINE
  5
1BB
330
1F
100
AcDbEntity
  8
SLD-0
  6
Continuous
370
    15
100
AcDbLine
 10
24.0831866263
 20
11.1891128628
 30
0.0
 11
24.0807191348
 21
11.1891128628
 31
0.0
  0
LINE
  5
1BC
330
1F
100
AcDbEntity
  8
SLD-0
  6
Continuous
370
    15
100
AcDbLine
 10
21.5827189786
 20
10.6891128689
 30
0.0
 11
22.8957189573
 21
10.6891128689
 31
0.0
  0
LINE
  5
1BD
330
1F
100
AcDbEntity
  8
SLD-0
  6
Continuous
370
    15
100
AcDbLine
 10
21.5827189786
 20
10.6674128329
 30
0.0
 11
22.8957189573
 21
10.6674128329
 31
0.0
  0
LINE
  5
1BE
330
1F
100
AcDbEntity
  8
SLD-0
  6
Continuous
370
    15
100
AcDbLine
 10
4.9467192149
 20
10.6674128329
 30
0.0
 11
4.9467192149
 21
10.6891128689
 31
0.0
  0
LINE
  5
1BF
330
1F
100
AcDbEntity
  8
SLD-0
  6
Continuous
370
    15
100
AcDbLine
 10
5.9357269473
 20
10.6891128689
 30
0.0
 11
4.9467192149
 21
10.6891128689
 31
0.0
  0
LINE
  5
1C0
330
1F
100
AcDbEntity
  8
SLD-0
  6
Continuous
370
    15
100
AcDbLine
 10
5.9357269473
 20
10.6674128329
 30
0.0
 11
4.9467192149
 21
10.6674128329
 31
0.0
  0
LINE
  5
1C1
330
1F
100
AcDbEntity
  8
SLD-0
  6
Continuous
370
    15
100
AcDbLine
 10
4.8940192178
 20
10.7201128574
 30
0.0
 11
4.9157192172
 21
10.7201128574
 31
0.0
  0
SPLINE
  5
1C2
330
1F
100
AcDbEntity
  8
SLD-0
  6
Continuous
370
    15
100
AcDbSpline
210
0.0
220
0.0
230
1.0
 70
     8
 71
     3
 72
    11
 73
     7
 74
     0
 42
0.00000001
 43
0.00000001
 12
1.0
 22
0.0
 32
0.0
 13
1.0
 23
0.0
 33
0.0
 40
0.0
 40
0.0
 40
0.0
 40
0.0
 40
0.2499997999762309
 40
0.4999997929939474
 40
0.7499995401501381
 40
1.0
 40
1.0
 40
1.0
 40
1.0
 10
4.94671921487251
 20
10.68911286888544
 30
0.0
 10
4.942657064003943
 20
10.68957882885112
 30
0.0
 10
4.934532759130151
 20
10.69051074914229
 30
0.0
 10
4.924285888259138
 20
10.69767950966915
 30
0.0
 10
4.917117136952292
 20
10.70792638776004
 30
0.0
 10
4.916185190862756
 20
10.71605069701832
 30
0.0
 10
4.915719217153796
 20
10.72011285743759
 30
0.0
  0
SPLINE
  5
1C3
330
1F
100
AcDbEntity
  8
SLD-0
  6
Continuous
370
    15
100
AcDbSpline
210
0.0
220
0.0
230
1.0
 70
     8
 71
     3
 72
    11
 73
     7
 74
     0
 42
0.00000001
 43
0.00000001
 12
1.0
 22
0.0
 32
0.0
 13
1.0
 23
0.0
 33
0.0
 40
0.0
 40
0.0
 40
0.0
 40
0.0
 40
0.2500000300030336
 40
0.4999997444552609
 40
0.7500003646120442
 40
1.0
 40
1.0
 40
1.0
 40
1.0
 10
4.94671921487251
 20
10.66741283289944
 30
0.0
 10
4.939813566798909
 20
10.66820501362284
 30
0.0
 10
4.926002279368038
 20
10.66978937406976
 30
0.0
 10
4.908582504867333
 20
10.68197614343678
 30
0.0
 10
4.896395731490597
 20
10.69939591684476
 30
0.0
 10
4.894811388012752
 20
10.7132072196406
 30
0.0
 10
4.89401921783404
 20
10.72011285743759
 30
0.0
  0
LINE
  5
1C4
330
1F
100
AcDbEntity
  8
SLD-0
  6
Continuous
370
    15
100
AcDbLine
 10
4.8940192178
 20
11.3141128522
 30
0.0
 11
4.9157192172
 21
11.3141128522
 31
0.0
  0
LINE
  5
1C5
330
1F
100
AcDbEntity
  8
SLD-0
  6
Continuous
370
    15
100
AcDbLine
 10
4.9157192172
 20
10.8711807123
 30
0.0
 11
4.9157192172
 21
10.7201128574
 31
0.0
  0
LINE
  5
1C6
330
1F
100
AcDbEntity
  8
SLD-0
  6
Continuous
370
    15
100
AcDbLine
 10
4.8940192178
 20
11.3141128522
 30
0.0
 11
4.8940192178
 21
10.7201128574
 31
0.0
  0
LINE
  5
1C7
330
1F
100
AcDbEntity
  8
SLD-0
  6
Continuous
370
    15
100
AcDbLine
 10
23.3003441497
 20
36.6331122749
 30
0.0
 11
23.3003441497
 21
39.7581134013
 31
0.0
  0
LINE
  5
1C8
330
1F
100
AcDbEntity
  8
SLD-0
  6
Continuous
370
    15
100
AcDbLine
 10
23.3003441497
 20
39.7581134013
 30
0.0
 11
23.3483446619
 21
39.7581134013
 31
0.0
  0
LINE
  5
1C9
330
1F
100
AcDbEntity
  8
SLD-0
  6
Continuous
370
    15
100
AcDbLine
 10
23.3483446619
 20
36.6331122749
 30
0.0
 11
23.3483446619
 21
39.7581134013
 31
0.0
  0
LINE
  5
1CA
330
1F
100
AcDbEntity
  8
SLD-0
  6
Continuous
370
    15
100
AcDbLine
 10
23.3003441497
 20
36.6331122749
 30
0.0
 11
23.3483446619
 21
36.6331122749
 31
0.0
  0
LINE
  5
1CB
330
1F
100
AcDbEntity
  8
SLD-0
  6
Continuous
370
    15
100
AcDbLine
 10
23.2853444297
 20
39.7581134013
 30
0.0
 11
23.2853444297
 21
36.6331122749
 31
0.0
  0
LINE
  5
1CC
330
1F
100
AcDbEntity
  8
SLD-0
  6
Continuous
370
    15
100
AcDbLine
 10
23.3003441497
 20
36.6331122749
 30
0.0
 11
23.2853444297
 21
36.6331122749
 31
0.0
  0
LINE
  5
1CD
330
1F
100
AcDbEntity
  8
SLD-0
  6
Continuous
370
    15
100
AcDbLine
 10
23.2853444297
 20
39.7581134013
 30
0.0
 11
23.3003441497
 21
39.7581134013
 31
0.0
  0
LINE
  5
1CE
330
1F
100
AcDbEntity
  8
SLD-0
  6
Continuous
370
    15
100
AcDbLine
 10
23.2853444297
 20
36.6331122749
 30
0.0
 11
21.7077197745
 21
36.6331122749
 31
0.0
  0
LINE
  5
1CF
330
1F
100
AcDbEntity
  8
SLD-0
  6
Continuous
370
    15
100
AcDbLine
 10
21.7077197745
 20
36.6331122749
 30
0.0
 11
21.7077197745
 21
39.7581134013
 31
0.0
  0
LINE
  5
1D0
330
1F
100
AcDbEntity
  8
SLD-0
  6
Continuous
370
    15
100
AcDbLine
 10
23.2853444297
 20
39.7581134013
 30
0.0
 11
21.7077197745
 21
39.7581134013
 31
0.0
  0
LINE
  5
1D1
330
1F
100
AcDbEntity
  8
SLD-0
  6
Continuous
370
    15
100
AcDbLine
 10
23.3483446619
 20
16.7201127116
 30
0.0
 11
23.3483446619
 21
19.8451126647
 31
0.0
  0
LINE
  5
1D2
330
1F
100
AcDbEntity
  8
SLD-0
  6
Continuous
370
    15
100
AcDbLine
 10
23.3003441497
 20
16.7201127116
 30
0.0
 11
23.3003441497
 21
19.8451126647
 31
0.0
  0
LINE
  5
1D3
330
1F
100
AcDbEntity
  8
SLD-0
  6
Continuous
370
    15
100
AcDbLine
 10
23.3003441497
 20
16.7201127116
 30
0.0
 11
23.3483446619
 21
16.7201127116
 31
0.0
  0
LINE
  5
1D4
330
1F
100
AcDbEntity
  8
SLD-0
  6
Continuous
370
    15
100
AcDbLine
 10
23.3003441497
 20
19.8451126647
 30
0.0
 11
23.3483446619
 21
19.8451126647
 31
0.0
  0
LINE
  5
1D5
330
1F
100
AcDbEntity
  8
SLD-0
  6
Continuous
370
    15
100
AcDbLine
 10
23.2853444297
 20
19.8451126647
 30
0.0
 11
23.2853444297
 21
16.7201127116
 31
0.0
  0
LINE
  5
1D6
330
1F
100
AcDbEntity
  8
SLD-0
  6
Continuous
370
    15
100
AcDbLine
 10
23.2853444297
 20
19.8451126647
 30
0.0
 11
23.3003441497
 21
19.8451126647
 31
0.0
  0
LINE
  5
1D7
330
1F
100
AcDbEntity
  8
SLD-0
  6
Continuous
370
    15
100
AcDbLine
 10
23.3003441497
 20
16.7201127116
 30
0.0
 11
23.2853444297
 21
16.7201127116
 31
0.0
  0
LINE
  5
1D8
330
1F
100
AcDbEntity
  8
SLD-0
  6
Continuous
370
    15
100
AcDbLine
 10
23.2853444297
 20
16.7201127116
 30
0.0
 11
21.7077197745
 21
16.7201127116
 31
0.0
  0
LINE
  5
1D9
330
1F
100
AcDbEntity
  8
SLD-0
  6
Continuous
370
    15
100
AcDbLine
 10
23.2853444297
 20
19.8451126647
 30
0.0
 11
21.7077197745
 21
19.8451126647
 31
0.0
  0
LINE
  5
1DA
330
1F
100
AcDbEntity
  8
SLD-0
  6
Continuous
370
    15
100
AcDbLine
 10
21.7077197745
 20
16.7201127116
 30
0.0
 11
21.7077197745
 21
19.8451126647
 31
0.0
  0
LINE
  5
1DB
330
1F
100
AcDbEntity
  8
SLD-0
  6
Continuous
370
    15
100
AcDbLine
 10
21.031319695
 20
45.3408134961
 30
0.0
 11
21.031319695
 21
45.3108117094
 31
0.0
  0
LINE
  5
1DC
330
1F
100
AcDbEntity
  8
SLD-0
  6
Continuous
370
    15
100
AcDbLine
 10
6.5313191736
 20
45.3408134961
 30
0.0
 11
6.5313191736
 21
45.3108117094
 31
0.0
  0
LINE
  5
1DD
330
1F
100
AcDbEntity
  8
SLD-0
  6
Continuous
370
    15
100
AcDbLine
 10
6.5313191736
 20
45.3408134961
 30
0.0
 11
21.031319695
 21
45.3408134961
 31
0.0
  0
LINE
  5
1DE
330
1F
100
AcDbEntity
  8
SLD-0
  6
Continuous
370
    15
100
AcDbLine
 10
6.5313191736
 20
45.3482546902
 30
0.0
 11
6.5313191736
 21
45.3408134961
 31
0.0
  0
LINE
  5
1DF
330
1F
100
AcDbEntity
  8
SLD-0
  6
Continuous
370
    15
100
AcDbLine
 10
21.031319695
 20
45.3482546902
 30
0.0
 11
6.5313191736
 21
45.3482546902
 31
0.0
  0
LINE
  5
1E0
330
1F
100
AcDbEntity
  8
SLD-0
  6
Continuous
370
    15
100
AcDbLine
 10
21.031319695
 20
45.3408134961
 30
0.0
 11
21.031319695
 21
45.3482546902
 31
0.0
  0
ARC
  5
1E1
330
1F
100
AcDbEntity
  8
SLD-0
  6
Continuous
370
    15
100
AcDbCircle
 10
17.9063191553
 20
47.4922033673
 30
0.0
 40
0.125823565483829
100
AcDbArc
 50
6.5582447036
 51
173.4417552964
  0
LINE
  5
1E2
330
1F
100
AcDbEntity
  8
SLD-0
  6
Continuous
370
    15
100
AcDbLine
 10
17.781318946
 20
47.5065740771
 30
0.0
 11
17.781318946
 21
46.6427948289
 31
0.0
  0
ARC
  5
1E3
330
1F
100
AcDbEntity
  8
SLD-0
  6
Continuous
370
    15
100
AcDbCircle
 10
17.9063191553
 20
46.6571627928
 30
0.0
 40
0.1258232518936222
100
AcDbArc
 50
186.5570024859
 51
353.4429975141
  0
LINE
  5
1E4
330
1F
100
AcDbEntity
  8
SLD-0
  6
Continuous
370
    15
100
AcDbLine
 10
18.0313193646
 20
47.5065740771
 30
0.0
 11
18.0313193646
 21
46.6427948289
 31
0.0
  0
LINE
  5
1E5
330
1F
100
AcDbEntity
  8
SLD-0
  6
Continuous
370
    15
100
AcDbLine
 10
23.1563191469
 20
46.8259289266
 30
0.0
 11
21.031319695
 21
46.8259289266
 31
0.0
  0
LINE
  5
1E6
330
1F
100
AcDbEntity
  8
SLD-0
  6
Continuous
370
    15
100
AcDbLine
 10
21.031319695
 20
46.8108118746
 30
0.0
 11
21.031319695
 21
46.8259289266
 31
0.0
  0
LINE
  5
1E7
330
1F
100
AcDbEntity
  8
SLD-0
  6
Continuous
370
    15
100
AcDbLine
 10
21.031319695
 20
46.8108118746
 30
0.0
 11
21.031319695
 21
45.3482546902
 31
0.0
  0
LINE
  5
1E8
330
1F
100
AcDbEntity
  8
SLD-0
  6
Continuous
370
    15
100
AcDbLine
 10
6.5313191736
 20
48.3037181484
 30
0.0
 11
6.5313191736
 21
45.3482546902
 31
0.0
  0
LINE
  5
1E9
330
1F
100
AcDbEntity
  8
SLD-0
  6
Continuous
370
    15
100
AcDbLine
 10
6.5313191736
 20
48.3037181484
 30
0.0
 11
23.4063195655
 21
48.3037181484
 31
0.0
  0
LINE
  5
1EA
330
1F
100
AcDbEntity
  8
SLD-0
  6
Continuous
370
    15
100
AcDbLine
 10
23.4063195655
 20
48.3037181484
 30
0.0
 11
23.4063195655
 21
47.0418737387
 31
0.0
  0
LINE
  5
1EB
330
1F
100
AcDbEntity
  8
SLD-0
  6
Continuous
370
    15
100
AcDbLine
 10
23.4063195655
 20
47.0418737387
 30
0.0
 11
23.1563191469
 21
46.8259289266
 31
0.0
  0
ARC
  5
1EC
330
1F
100
AcDbEntity
  8
SLD-0
  6
Continuous
370
    15
100
AcDbCircle
 10
14.9063194116
 20
47.4922041695
 30
0.0
 40
0.1258228910351792
100
AcDbArc
 50
6.5579122773
 51
173.4420877227
  0
LINE
  5
1ED
330
1F
100
AcDbEntity
  8
SLD-0
  6
Continuous
370
    15
100
AcDbLine
 10
14.7813197889
 20
46.6427948289
 30
0.0
 11
14.7813197889
 21
47.5065740771
 31
0.0
  0
ARC
  5
1EE
330
1F
100
AcDbEntity
  8
SLD-0
  6
Continuous
370
    15
100
AcDbCircle
 10
14.9063194116
 20
46.6571617881
 30
0.0
 40
0.1258225543479056
100
AcDbArc
 50
186.5565784809
 51
353.4434215191
  0
LINE
  5
1EF
330
1F
100
AcDbEntity
  8
SLD-0
  6
Continuous
370
    15
100
AcDbLine
 10
15.0313190342
 20
47.5065740771
 30
0.0
 11
15.0313190342
 21
46.6427948289
 31
0.0
  0
LINE
  5
1F0
330
1F
100
AcDbEntity
  8
SLD-0
  6
Continuous
370
    15
100
AcDbLine
 10
23.1563191469
 20
46.8108118746
 30
0.0
 11
23.1563191469
 21
46.8259289266
 31
0.0
  0
LINE
  5
1F1
330
1F
100
AcDbEntity
  8
SLD-0
  6
Continuous
370
    15
100
AcDbLine
 10
21.031319695
 20
46.8108118746
 30
0.0
 11
23.1563191469
 21
46.8108118746
 31
0.0
  0
LINE
  5
1F2
330
1F
100
AcDbEntity
  8
SLD-0
  6
Continuous
370
    15
100
AcDbLine
 10
23.4063195655
 20
47.0267566867
 30
0.0
 11
23.4063195655
 21
47.0418737387
 31
0.0
  0
LINE
  5
1F3
330
1F
100
AcDbEntity
  8
SLD-0
  6
Continuous
370
    15
100
AcDbLine
 10
23.4063195655
 20
47.0267566867
 30
0.0
 11
23.1563191469
 21
46.8108118746
 31
0.0
  0
ARC
  5
1F4
330
1F
100
AcDbEntity
  8
SLD-0
  6
Continuous
370
    15
100
AcDbCircle
 10
14.9063194116
 20
47.4770889481
 30
0.0
 40
0.1258226819800235
100
AcDbArc
 50
6.5570841319
 51
173.4429158681
  0
ARC
  5
1F5
330
1F
100
AcDbEntity
  8
SLD-0
  6
Continuous
370
    15
100
AcDbCircle
 10
17.9063191553
 20
47.4770881459
 30
0.0
 40
0.1258233564160655
100
AcDbArc
 50
6.557416555
 51
173.442583445
  0
LINE
  5
1F6
330
1F
100
AcDbEntity
  8
SLD-0
  6
Continuous
370
    15
100
AcDbLine
 10
23.4063195655
 20
48.3260440772
 30
0.0
 11
23.4063195655
 21
48.3037181484
 31
0.0
  0
LINE
  5
1F7
330
1F
100
AcDbEntity
  8
SLD-0
  6
Continuous
370
    15
100
AcDbLine
 10
6.5313191736
 20
48.3037181484
 30
0.0
 11
6.5313191736
 21
48.3260440772
 31
0.0
  0
LINE
  5
1F8
330
1F
100
AcDbEntity
  8
SLD-0
  6
Continuous
370
    15
100
AcDbLine
 10
21.1427193681
 20
45.3108117094
 30
0.0
 11
21.5827189786
 21
45.3108117094
 31
0.0
  0
LINE
  5
1F9
330
1F
100
AcDbEntity
  8
SLD-0
  6
Continuous
370
    15
100
AcDbLine
 10
21.5827189786
 20
45.2581132248
 30
0.0
 11
21.5827189786
 21
45.3108117094
 31
0.0
  0
LINE
  5
1FA
330
1F
100
AcDbEntity
  8
SLD-0
  6
Continuous
370
    15
100
AcDbLine
 10
21.202661929
 20
45.2581132248
 30
0.0
 11
21.5827189786
 21
45.2581132248
 31
0.0
  0
SPLINE
  5
1FB
330
1F
100
AcDbEntity
  8
SLD-0
  6
Continuous
370
    15
100
AcDbSpline
210
0.0
220
0.0
230
1.0
 70
     8
 71
     3
 72
    11
 73
     7
 74
     0
 42
0.00000001
 43
0.00000001
 12
1.0
 22
0.0
 32
0.0
 13
1.0
 23
0.0
 33
0.0
 40
0.0
 40
0.0
 40
0.0
 40
0.0
 40
0.2499965137247847
 40
0.4999990912929719
 40
0.750001668861159
 40
0.9999999999999999
 40
0.9999999999999999
 40
0.9999999999999999
 40
0.9999999999999999
 10
21.14271936813001
 20
45.31081170939938
 30
0.0
 10
21.14771461247397
 20
45.31001993011301
 30
0.0
 10
21.1577052223251
 20
45.3084363523351
 30
0.0
 10
21.17269064078402
 20
45.29625028357146
 30
0.0
 10
21.18767614224679
 20
45.27882967964187
 30
0.0
 10
21.19766669503284
 20
45.265018670678
 30
0.0
 10
21.20266192900177
 20
45.25811322484343
 30
0.0
  0
LINE
  5
1FC
330
1F
100
AcDbEntity
  8
SLD-0
  6
Continuous
370
    15
100
AcDbLine
 10
22.8957189573
 20
45.2410836616
 30
0.0
 11
22.8957189573
 21
45.2581132248
 31
0.0
  0
LINE
  5
1FD
330
1F
100
AcDbEntity
  8
SLD-0
  6
Continuous
370
    15
100
AcDbLine
 10
22.8957189573
 20
45.2581132248
 30
0.0
 11
23.2707189986
 21
45.2581132248
 31
0.0
  0
LINE
  5
1FE
330
1F
100
AcDbEntity
  8
SLD-0
  6
Continuous
370
    15
100
AcDbLine
 10
23.2707189986
 20
44.6641130468
 30
0.0
 11
23.2707189986
 21
45.2581132248
 31
0.0
  0
LINE
  5
1FF
330
1F
100
AcDbEntity
  8
SLD-0
  6
Continuous
370
    15
100
AcDbLine
 10
21.7966621071
 20
44.6641130468
 30
0.0
 11
23.2707189986
 21
44.6641130468
 31
0.0
  0
LINE
  5
200
330
1F
100
AcDbEntity
  8
SLD-0
  6
Continuous
370
    15
100
AcDbLine
 10
21.5827189786
 20
45.2581132248
 30
0.0
 11
21.5827189786
 21
45.2410836616
 31
0.0
  0
LINE
  5
201
330
1F
100
AcDbEntity
  8
SLD-0
  6
Continuous
370
    15
100
AcDbLine
 10
21.5827189786
 20
45.2410836616
 30
0.0
 11
22.8957189573
 21
45.2410836616
 31
0.0
  0
LINE
  5
202
330
1F
100
AcDbEntity
  8
SLD-0
  6
Continuous
370
    15
100
AcDbLine
 10
21.7966621071
 20
44.6641130468
 30
0.0
 11
21.202661929
 21
45.2581132248
 31
0.0
  0
SPLINE
  5
203
330
1F
100
AcDbEntity
  8
SLD-0
  6
Continuous
370
    15
100
AcDbSpline
210
0.0
220
0.0
230
1.0
 70
     8
 71
     3
 72
    11
 73
     7
 74
     0
 42
0.00000001
 43
0.00000001
 12
1.0
 22
0.0
 32
0.0
 13
1.0
 23
0.0
 33
0.0
 40
0.0
 40
0.0
 40
0.0
 40
0.0
 40
0.2499999825424509
 40
0.499999781340747
 40
0.7500075343741263
 40
1.0
 40
1.0
 40
1.0
 40
1.0
 10
21.14271936813001
 20
45.28911233340575
 30
0.0
 10
21.14771456374612
 20
45.28864701337851
 30
0.0
 10
21.15770495130699
 20
45.287716373666
 30
0.0
 10
21.17269100996526
 20
45.28054586712791
 30
0.0
 10
21.18767570362138
 20
45.27029883164808
 30
0.0
 10
21.19766662236509
 20
45.26217501098358
 30
0.0
 10
21.20266192900177
 20
45.25811322484343
 30
0.0
  0
LINE
  5
204
330
1F
100
AcDbEntity
  8
SLD-0
  6
Continuous
370
    15
100
AcDbLine
 10
21.1427193681
 20
45.3108117094
 30
0.0
 11
21.1427193681
 21
45.2891123334
 31
0.0
  0
LINE
  5
205
330
1F
100
AcDbEntity
  8
SLD-0
  6
Continuous
370
    15
100
AcDbLine
 10
22.8957189573
 20
45.3108117094
 30
0.0
 11
22.8957189573
 21
45.2581132248
 31
0.0
  0
LINE
  5
206
330
1F
100
AcDbEntity
  8
SLD-0
  6
Continuous
370
    15
100
AcDbLine
 10
22.8957189573
 20
45.3108117094
 30
0.0
 11
23.2707189986
 21
45.3108117094
 31
0.0
  0
LINE
  5
207
330
1F
100
AcDbEntity
  8
SLD-0
  6
Continuous
370
    15
100
AcDbLine
 10
23.2707189986
 20
45.2581132248
 30
0.0
 11
23.2707189986
 21
45.3108117094
 31
0.0
  0
SPLINE
  5
208
330
1F
100
AcDbEntity
  8
SLD-0
  6
Continuous
370
    15
100
AcDbSpline
210
0.0
220
0.0
230
1.0
 70
     8
 71
     3
 72
    11
 73
     7
 74
     0
 42
0.00000001
 43
0.00000001
 12
1.0
 22
0.0
 32
0.0
 13
1.0
 23
0.0
 33
0.0
 40
0.0
 40
0.0
 40
0.0
 40
0.0
 40
0.250002481494668
 40
0.499992140799057
 40
0.7500029743960851
 40
1.0
 40
1.0
 40
1.0
 40
1.0
 10
5.935726947270791
 20
45.31081170939938
 30
0.0
 10
5.935331169841525
 20
45.31002005830992
 30
0.0
 10
5.934539635281728
 20
45.30843679673342
 30
0.0
 10
5.934035196622591
 20
45.29624944532306
 30
0.0
 10
5.934615171993648
 20
45.27883019166779
 30
0.0
 10
5.936356822208885
 20
45.26501875331474
 30
0.0
 10
5.937227623268186
 20
45.25811322484345
 30
0.0
  0
LINE
  5
209
330
1F
100
AcDbEntity
  8
SLD-0
  6
Continuous
370
    15
100
AcDbLine
 10
5.9357269473
 20
45.3108117094
 30
0.0
 11
21.1427193681
 21
45.3108117094
 31
0.0
  0
SPLINE
  5
20A
330
1F
100
AcDbEntity
  8
SLD-0
  6
Continuous
370
    15
100
AcDbSpline
210
0.0
220
0.0
230
1.0
 70
     8
 71
     3
 72
    12
 73
     8
 74
     0
 42
0.00000001
 43
0.00000001
 12
1.0
 22
0.0
 32
0.0
 13
1.0
 23
0.0
 33
0.0
 40
0.0
 40
0.0
 40
0.0
 40
0.0
 40
0.2373817887895467
 40
0.4749141615105742
 40
0.7124371786192615
 40
0.9499503113054927
 40
1.0
 40
1.0
 40
1.0
 40
1.0
 10
21.09365582824955
 20
45.25811322484343
 30
0.0
 10
21.09682267635016
 20
45.26466342858728
 30
0.0
 10
21.10315838145207
 20
45.27776799121859
 30
0.0
 10
21.11450757342591
 20
45.29473634158771
 30
0.0
 10
21.12686757515046
 20
45.30661520784097
 30
0.0
 10
21.13652575314124
 20
45.31058813927159
 30
0.0
 10
21.14180118976627
 20
45.31077856603247
 30
0.0
 10
21.14271936813001
 20
45.31081170939938
 30
0.0
  0
LINE
  5
20B
330
1F
100
AcDbEntity
  8
SLD-0
  6
Continuous
370
    15
100
AcDbLine
 10
21.0936558282
 20
45.2581132248
 30
0.0
 11
5.9372276233
 21
45.2581132248
 31
0.0
  0
LINE
  5
20C
330
1F
100
AcDbEntity
  8
SLD-0
  6
Continuous
370
    15
100
AcDbLine
 10
21.0936558282
 20
45.2581132248
 30
0.0
 11
21.0981519896
 21
45.2581132248
 31
0.0
  0
SPLINE
  5
20D
330
1F
100
AcDbEntity
  8
SLD-0
  6
Continuous
370
    15
100
AcDbSpline
210
0.0
220
0.0
230
1.0
 70
     8
 71
     3
 72
    11
 73
     7
 74
     0
 42
0.00000001
 43
0.00000001
 12
1.0
 22
0.0
 32
0.0
 13
1.0
 23
0.0
 33
0.0
 40
0.0
 40
0.0
 40
0.0
 40
0.0
 40
0.2752123948332731
 40
0.5507991575927101
 40
0.8263736077660933
 40
1.0
 40
1.0
 40
1.0
 40
1.0
 10
21.09815198964284
 20
45.25811322484343
 30
0.0
 10
21.10177100045966
 20
45.26258572510857
 30
0.0
 10
21.10901394498776
 20
45.27153680952419
 30
0.0
 10
21.12131018227034
 20
45.282417330199
 30
0.0
 10
21.13273371506996
 20
45.28829381329579
 30
0.0
 10
21.13993565409427
 20
45.28888415344547
 30
0.0
 10
21.14271936813001
 20
45.28911233340575
 30
0.0
  0
LINE
  5
20E
330
1F
100
AcDbEntity
  8
SLD-0
  6
Continuous
370
    15
100
AcDbLine
 10
21.0936558282
 20
45.2581132248
 30
0.0
 11
20.7156638215
 21
44.6641130468
 31
0.0
  0
LINE
  5
20F
330
1F
100
AcDbEntity
  8
SLD-0
  6
Continuous
370
    15
100
AcDbLine
 10
20.7156638215
 20
44.6641130468
 30
0.0
 11
6.0602958149
 21
44.6641130468
 31
0.0
  0
LINE
  5
210
330
1F
100
AcDbEntity
  8
SLD-0
  6
Continuous
370
    15
100
AcDbLine
 10
6.0602958149
 20
44.6641130468
 30
0.0
 11
5.9372276233
 21
45.2581132248
 31
0.0
  0
LINE
  5
211
330
1F
100
AcDbEntity
  8
SLD-0
  6
Continuous
370
    15
100
AcDbLine
 10
21.0981519896
 20
45.2581132248
 30
0.0
 11
20.7201599829
 21
44.6641130468
 31
0.0
  0
LINE
  5
212
330
1F
100
AcDbEntity
  8
SLD-0
  6
Continuous
370
    15
100
AcDbLine
 10
20.7156638215
 20
44.6641130468
 30
0.0
 11
20.7201599829
 21
44.6641130468
 31
0.0
  0
LINE
  5
213
330
1F
100
AcDbEntity
  8
SLD-0
  6
Continuous
370
    15
100
AcDbLine
 10
24.0497188529
 20
45.2891123334
 30
0.0
 11
24.0497188529
 21
45.3108117094
 31
0.0
  0
LINE
  5
214
330
1F
100
AcDbEntity
  8
SLD-0
  6
Continuous
370
    15
100
AcDbLine
 10
23.2707189986
 20
45.2891123334
 30
0.0
 11
24.0497188529
 21
45.2891123334
 31
0.0
  0
LINE
  5
215
330
1F
100
AcDbEntity
  8
SLD-0
  6
Continuous
370
    15
100
AcDbLine
 10
23.2707189986
 20
45.3108117094
 30
0.0
 11
24.0497188529
 21
45.3108117094
 31
0.0
  0
LINE
  5
216
330
1F
100
AcDbEntity
  8
SLD-0
  6
Continuous
370
    15
100
AcDbLine
 10
24.0807191348
 20
44.8650581388
 30
0.0
 11
24.0807191348
 21
45.2581132248
 31
0.0
  0
ARC
  5
217
330
1F
100
AcDbEntity
  8
SLD-0
  6
Continuous
370
    15
100
AcDbCircle
 10
24.0497192164
 20
45.2581128568
 30
0.0
 40
0.0526999999999944
100
AcDbArc
 50
23.3058382053
 51
90.0
  0
ARC
  5
218
330
1F
100
AcDbEntity
  8
SLD-0
  6
Continuous
370
    15
100
AcDbCircle
 10
24.0497192164
 20
45.2581128568
 30
0.0
 40
0.0309999999999953
100
AcDbArc
 50
0.0
 51
90.0
  0
LINE
  5
219
330
1F
100
AcDbEntity
  8
SLD-0
  6
Continuous
370
    15
100
AcDbLine
 10
22.8957189573
 20
45.2891123334
 30
0.0
 11
21.5827189786
 21
45.2891123334
 31
0.0
  0
LINE
  5
21A
330
1F
100
AcDbEntity
  8
SLD-0
  6
Continuous
370
    15
100
AcDbLine
 10
22.8957189573
 20
45.3108117094
 30
0.0
 11
21.5827189786
 21
45.3108117094
 31
0.0
  0
LINE
  5
21B
330
1F
100
AcDbEntity
  8
SLD-0
  6
Continuous
370
    15
100
AcDbLine
 10
4.9467192149
 20
45.3108117094
 30
0.0
 11
4.9467192149
 21
45.2891123334
 31
0.0
  0
LINE
  5
21C
330
1F
100
AcDbEntity
  8
SLD-0
  6
Continuous
370
    15
100
AcDbLine
 10
4.9467192149
 20
45.2891123334
 30
0.0
 11
5.9357269473
 21
45.2891123334
 31
0.0
  0
LINE
  5
21D
330
1F
100
AcDbEntity
  8
SLD-0
  6
Continuous
370
    15
100
AcDbLine
 10
4.9467192149
 20
45.3108117094
 30
0.0
 11
5.9357269473
 21
45.3108117094
 31
0.0
  0
LINE
  5
21E
330
1F
100
AcDbEntity
  8
SLD-0
  6
Continuous
370
    15
100
AcDbLine
 10
4.9157192172
 20
45.2581132248
 30
0.0
 11
4.8940192178
 21
45.2581132248
 31
0.0
  0
SPLINE
  5
21F
330
1F
100
AcDbEntity
  8
SLD-0
  6
Continuous
370
    15
100
AcDbSpline
210
0.0
220
0.0
230
1.0
 70
     8
 71
     3
 72
    11
 73
     7
 74
     0
 42
0.00000001
 43
0.00000001
 12
1.0
 22
0.0
 32
0.0
 13
1.0
 23
0.0
 33
0.0
 40
0.0
 40
0.0
 40
0.0
 40
0.0
 40
0.2499836192794338
 40
0.4999940389791322
 40
0.7500039383979279
 40
0.9999999999999999
 40
0.9999999999999999
 40
0.9999999999999999
 40
0.9999999999999999
 10
4.915719217153796
 20
45.25811322484343
 30
0.0
 10
4.916185262411627
 20
45.2621750474549
 30
0.0
 10
4.917117402891396
 20
45.27029912814056
 30
0.0
 10
4.92428591708112
 20
45.28054598802257
 30
0.0
 10
4.934532392198165
 20
45.28771622108184
 30
0.0
 10
4.942657015598201
 20
45.28864697121739
 30
0.0
 10
4.94671921487251
 20
45.28911233340577
 30
0.0
  0
SPLINE
  5
220
330
1F
100
AcDbEntity
  8
SLD-0
  6
Continuous
370
    15
100
AcDbSpline
210
0.0
220
0.0
230
1.0
 70
     8
 71
     3
 72
    11
 73
     7
 74
     0
 42
0.00000001
 43
0.00000001
 12
1.0
 22
0.0
 32
0.0
 13
1.0
 23
0.0
 33
0.0
 40
0.0
 40
0.0
 40
0.0
 40
0.0
 40
0.2499967515600044
 40
0.5000031028885058
 40
0.7500013012120206
 40
1.0
 40
1.0
 40
1.0
 40
1.0
 10
4.89401921783404
 20
45.25811322484343
 30
0.0
 10
4.89481144027271
 20
45.26501871273182
 30
0.0
 10
4.896395915571053
 20
45.27882995367636
 30
0.0
 10
4.908582236265174
 20
45.29624995080229
 30
0.0
 10
4.926002312663362
 20
45.30843651392483
 30
0.0
 10
4.939813576194735
 20
45.31001997704623
 30
0.0
 10
4.94671921487251
 20
45.31081170939938
 30
0.0
  0
LINE
  5
221
330
1F
100
AcDbEntity
  8
SLD-0
  6
Continuous
370
    15
100
AcDbLine
 10
4.8940192178
 20
45.2581132248
 30
0.0
 11
4.8940192178
 21
44.6641130468
 31
0.0
  0
LINE
  5
222
330
1F
100
AcDbEntity
  8
SLD-0
  6
Continuous
370
    15
100
AcDbLine
 10
4.9157192172
 20
45.2581132248
 30
0.0
 11
4.9157192172
 21
45.1070459567
 31
0.0
  0
LINE
  5
223
330
1F
100
AcDbEntity
  8
SLD-0
  6
Continuous
370
    15
100
AcDbLine
 10
4.9157192172
 20
44.6641130468
 30
0.0
 11
4.8940192178
 21
44.6641130468
 31
0.0
  0
LINE
  5
224
330
1F
100
AcDbEntity
  8
SLD-0
  6
Continuous
370
    15
100
AcDbLine
 10
21.0903083469
 20
45.2457863272
 30
0.0
 11
21.0903083469
 21
10.7324382884
 31
0.0
  0
LINE
  5
225
330
1F
100
AcDbEntity
  8
SLD-0
  6
Continuous
370
    15
100
AcDbLine
 10
24.0497188529
 20
10.6891128689
 30
0.0
 11
24.0497188529
 21
10.6777128206
 31
0.0
  0
LINE
  5
226
330
1F
100
AcDbEntity
  8
SLD-0
  6
Continuous
370
    15
100
AcDbLine
 10
24.0807191348
 20
10.7201128574
 30
0.0
 11
24.0981194671
 21
10.7201128574
 31
0.0
  0
LINE
  5
227
330
1F
100
AcDbEntity
  8
SLD-0
  6
Continuous
370
    15
100
AcDbLine
 10
24.0807191348
 20
45.2581132248
 30
0.0
 11
24.0981194671
 21
45.2581132248
 31
0.0
  0
LINE
  5
228
330
1F
100
AcDbEntity
  8
SLD-0
  6
Continuous
370
    15
100
AcDbLine
 10
45.2786234024
 20
69.6813493
 30
0.0
 11
81.0620489625
 21
69.6813493
 31
0.0
  0
LINE
  5
229
330
1F
100
AcDbEntity
  8
SLD-0
  6
Continuous
370
    15
100
AcDbLine
 10
82.6831239957
 20
72.3698907218
 30
0.0
 11
43.6575483692
 21
72.3698907218
 31
0.0
  0
LINE
  5
22A
330
1F
100
AcDbEntity
  8
SLD-0
  6
Continuous
370
    15
100
AcDbLine
 10
43.6575483692
 20
72.3052912547
 30
0.0
 11
82.6831239957
 21
72.3052912547
 31
0.0
  0
LINE
  5
22B
330
1F
100
AcDbEntity
  8
SLD-0
  6
Continuous
370
    15
100
AcDbLine
 10
43.6575483692
 20
72.3052912547
 30
0.0
 11
43.6575483692
 21
72.3698907218
 31
0.0
  0
LINE
  5
22C
330
1F
100
AcDbEntity
  8
SLD-0
  6
Continuous
370
    15
100
AcDbLine
 10
82.6831239957
 20
72.3698907218
 30
0.0
 11
82.6831239957
 21
72.3052912547
 31
0.0
  0
LINE
  5
22D
330
1F
100
AcDbEntity
  8
SLD-0
  6
Continuous
370
    15
100
AcDbLine
 10
82.6831239957
 20
73.055290164
 30
0.0
 11
74.2759052766
 21
73.055290164
 31
0.0
  0
LINE
  5
22E
330
1F
100
AcDbEntity
  8
SLD-0
  6
Continuous
370
    15
100
AcDbLine
 10
72.7012238942
 20
73.055290164
 30
0.0
 11
53.6359056317
 21
73.055290164
 31
0.0
  0
LINE
  5
22F
330
1F
100
AcDbEntity
  8
SLD-0
  6
Continuous
370
    15
100
AcDbLine
 10
52.0612236625
 20
73.055290164
 30
0.0
 11
43.6575483692
 21
73.055290164
 31
0.0
  0
LINE
  5
230
330
1F
100
AcDbEntity
  8
SLD-0
  6
Continuous
370
    15
100
AcDbLine
 10
82.6831239957
 20
73.055290164
 30
0.0
 11
82.6831239957
 21
72.3698907218
 31
0.0
  0
LINE
  5
231
330
1F
100
AcDbEntity
  8
SLD-0
  6
Continuous
370
    15
100
AcDbLine
 10
43.6575483692
 20
73.055290164
 30
0.0
 11
43.6575483692
 21
72.3698907218
 31
0.0
  0
LINE
  5
232
330
1F
100
AcDbEntity
  8
SLD-0
  6
Continuous
370
    15
100
AcDbLine
 10
43.6575483692
 20
72.3052912547
 30
0.0
 11
43.6574357305
 21
72.3052912547
 31
0.0
  0
LINE
  5
233
330
1F
100
AcDbEntity
  8
SLD-0
  6
Continuous
370
    15
100
AcDbLine
 10
43.6575483692
 20
72.3388904399
 30
0.0
 11
43.6574357305
 21
72.3388904399
 31
0.0
  0
LINE
  5
234
330
1F
100
AcDbEntity
  8
SLD-0
  6
Continuous
370
    15
100
AcDbLine
 10
82.6832366344
 20
72.3052912547
 30
0.0
 11
82.6831239957
 21
72.3052912547
 31
0.0
  0
LINE
  5
235
330
1F
100
AcDbEntity
  8
SLD-0
  6
Continuous
370
    15
100
AcDbLine
 10
82.6832366344
 20
72.3388904399
 30
0.0
 11
82.6831239957
 21
72.3388904399
 31
0.0
  0
SPLINE
  5
236
330
1F
100
AcDbEntity
  8
SLD-0
  6
Continuous
370
    15
100
AcDbSpline
210
0.0
220
0.0
230
1.0
 70
     8
 71
     3
 72
    11
 73
     7
 74
     0
 42
0.00000001
 43
0.00000001
 12
1.0
 22
0.0
 32
0.0
 13
1.0
 23
0.0
 33
0.0
 40
0.0
 40
0.0
 40
0.0
 40
0.0
 40
0.2499883220614905
 40
0.4999901605487498
 40
0.749980266818667
 40
1.0
 40
1.0
 40
1.0
 40
1.0
 10
82.68323663443972
 20
72.3388904398837
 30
0.0
 10
82.68729837508488
 20
72.33935628422218
 30
0.0
 10
82.69542207598634
 20
72.3402879980865
 30
0.0
 10
82.7056697007859
 20
72.3474579117825
 30
0.0
 10
82.71283820249114
 20
72.35770450512183
 30
0.0
 10
82.71376987776365
 20
72.36582848909525
 30
0.0
 10
82.71423574300205
 20
72.3698907217658
 30
0.0
  0
LINE
  5
237
330
1F
100
AcDbEntity
  8
SLD-0
  6
Continuous
370
    15
100
AcDbLine
 10
82.714235743
 20
72.3698907218
 30
0.0
 11
82.7478361015
 21
72.3698907218
 31
0.0
  0
SPLINE
  5
238
330
1F
100
AcDbEntity
  8
SLD-0
  6
Continuous
370
    15
100
AcDbSpline
210
0.0
220
0.0
230
1.0
 70
     8
 71
     3
 72
    11
 73
     7
 74
     0
 42
0.00000001
 43
0.00000001
 12
1.0
 22
0.0
 32
0.0
 13
1.0
 23
0.0
 33
0.0
 40
0.0
 40
0.0
 40
0.0
 40
0.0
 40
0.2499938121199703
 40
0.4999884118592637
 40
0.7499875328794635
 40
1.0
 40
1.0
 40
1.0
 40
1.0
 10
82.68323663443972
 20
72.30529125469101
 30
0.0
 10
82.69170133348493
 20
72.30626242457247
 30
0.0
 10
82.70863075824381
 20
72.3082047673951
 30
0.0
 10
82.72998448632963
 20
72.3231416586965
 30
0.0
 10
82.74492323099012
 20
72.34449597598697
 30
0.0
 10
82.74686512739561
 20
72.36142565587954
 30
0.0
 10
82.74783610151451
 20
72.3698907217658
 30
0.0
  0
SPLINE
  5
239
330
1F
100
AcDbEntity
  8
SLD-0
  6
Continuous
370
    15
100
AcDbSpline
210
0.0
220
0.0
230
1.0
 70
     8
 71
     3
 72
    11
 73
     7
 74
     0
 42
0.00000001
 43
0.00000001
 12
1.0
 22
0.0
 32
0.0
 13
1.0
 23
0.0
 33
0.0
 40
0.0
 40
0.0
 40
0.0
 40
0.0
 40
0.250019733181333
 40
0.5000098394512502
 40
0.7500116779385095
 40
1.0
 40
1.0
 40
1.0
 40
1.0
 10
43.62643662192631
 20
72.3698907217658
 30
0.0
 10
43.62690248716469
 20
72.36582848909526
 30
0.0
 10
43.62783416243723
 20
72.35770450512183
 30
0.0
 10
43.63500266414244
 20
72.3474579117825
 30
0.0
 10
43.64525028894203
 20
72.34028799808651
 30
0.0
 10
43.65337398984347
 20
72.33935628422218
 30
0.0
 10
43.65743573048863
 20
72.3388904398837
 30
0.0
  0
LINE
  5
23A
330
1F
100
AcDbEntity
  8
SLD-0
  6
Continuous
370
    15
100
AcDbLine
 10
43.5928362634
 20
72.3698907218
 30
0.0
 11
43.6264366219
 21
72.3698907218
 31
0.0
  0
SPLINE
  5
23B
330
1F
100
AcDbEntity
  8
SLD-0
  6
Continuous
370
    15
100
AcDbSpline
210
0.0
220
0.0
230
1.0
 70
     8
 71
     3
 72
    11
 73
     7
 74
     0
 42
0.00000001
 43
0.00000001
 12
1.0
 22
0.0
 32
0.0
 13
1.0
 23
0.0
 33
0.0
 40
0.0
 40
0.0
 40
0.0
 40
0.0
 40
0.2500124671205364
 40
0.5000115881407363
 40
0.7500061878800297
 40
1.0
 40
1.0
 40
1.0
 40
1.0
 10
43.59283626341385
 20
72.3698907217658
 30
0.0
 10
43.59380723753274
 20
72.36142565587954
 30
0.0
 10
43.59574913393823
 20
72.34449597598697
 30
0.0
 10
43.61068787859872
 20
72.3231416586965
 30
0.0
 10
43.63204160668453
 20
72.3082047673951
 30
0.0
 10
43.64897103144342
 20
72.30626242457247
 30
0.0
 10
43.65743573048863
 20
72.30529125469101
 30
0.0
  0
LINE
  5
23C
330
1F
100
AcDbEntity
  8
SLD-0
  6
Continuous
370
    15
100
AcDbLine
 10
82.714235743
 20
72.3698907218
 30
0.0
 11
82.714235743
 21
73.055290164
 31
0.0
  0
LINE
  5
23D
330
1F
100
AcDbEntity
  8
SLD-0
  6
Continuous
370
    15
100
AcDbLine
 10
82.714235743
 20
73.055290164
 30
0.0
 11
82.7478361015
 21
73.055290164
 31
0.0
  0
LINE
  5
23E
330
1F
100
AcDbEntity
  8
SLD-0
  6
Continuous
370
    15
100
AcDbLine
 10
82.7478361015
 20
72.3698907218
 30
0.0
 11
82.7478361015
 21
73.055290164
 31
0.0
  0
LINE
  5
23F
330
1F
100
AcDbEntity
  8
SLD-0
  6
Continuous
370
    15
100
AcDbLine
 10
43.5928362634
 20
73.055290164
 30
0.0
 11
43.6264366219
 21
73.055290164
 31
0.0
  0
LINE
  5
240
330
1F
100
AcDbEntity
  8
SLD-0
  6
Continuous
370
    15
100
AcDbLine
 10
43.6264366219
 20
73.055290164
 30
0.0
 11
43.6264366219
 21
72.3698907218
 31
0.0
  0
LINE
  5
241
330
1F
100
AcDbEntity
  8
SLD-0
  6
Continuous
370
    15
100
AcDbLine
 10
43.5928362634
 20
73.055290164
 30
0.0
 11
43.5928362634
 21
72.3698907218
 31
0.0
  0
LINE
  5
242
330
1F
100
AcDbEntity
  8
SLD-0
  6
Continuous
370
    15
100
AcDbLine
 10
81.0753356357
 20
71.8393589305
 30
0.0
 11
45.2653367292
 21
71.8393589305
 31
0.0
  0
LINE
  5
243
330
1F
100
AcDbEntity
  8
SLD-0
  6
Continuous
370
    15
100
AcDbLine
 10
45.2653367292
 20
72.3052912547
 30
0.0
 11
45.2653367292
 21
71.8393589305
 31
0.0
  0
LINE
  5
244
330
1F
100
AcDbEntity
  8
SLD-0
  6
Continuous
370
    15
100
AcDbLine
 10
81.0753356357
 20
72.3052912547
 30
0.0
 11
81.0753356357
 21
71.8393589305
 31
0.0
  0
LINE
  5
245
330
1F
100
AcDbEntity
  8
SLD-0
  6
Continuous
370
    15
100
AcDbLine
 10
81.0753356357
 20
71.8393589305
 30
0.0
 11
81.0753356357
 21
71.8076088973
 31
0.0
  0
LINE
  5
246
330
1F
100
AcDbEntity
  8
SLD-0
  6
Continuous
370
    15
100
AcDbLine
 10
81.0753356357
 20
71.8076088973
 30
0.0
 11
45.2653367292
 21
71.8076088973
 31
0.0
  0
LINE
  5
247
330
1F
100
AcDbEntity
  8
SLD-0
  6
Continuous
370
    15
100
AcDbLine
 10
45.2653367292
 20
71.8076088973
 30
0.0
 11
45.2653367292
 21
71.8393589305
 31
0.0
  0
ARC
  5
248
330
1F
100
AcDbEntity
  8
SLD-0
  6
Continuous
370
    15
100
AcDbCircle
 10
45.2597240677
 20
71.8472955464
 30
0.0
 40
0.0400815679355788
100
AcDbArc
 50
191.4207075923
 51
278.0496392717
  0
LINE
  5
249
330
1F
100
AcDbEntity
  8
SLD-0
  6
Continuous
370
    15
100
AcDbLine
 10
45.2653367292
 20
71.8076088973
 30
0.0
 11
45.2653367292
 21
69.6906818855
 31
0.0
  0
SPLINE
  5
24A
330
1F
100
AcDbEntity
  8
SLD-0
  6
Continuous
370
    15
100
AcDbSpline
210
0.0
220
0.0
230
1.0
 70
     8
 71
     3
 72
    11
 73
     7
 74
     0
 42
0.00000001
 43
0.00000001
 12
1.0
 22
0.0
 32
0.0
 13
1.0
 23
0.0
 33
0.0
 40
0.0
 40
0.0
 40
0.0
 40
0.0
 40
0.2582827669368546
 40
0.5167719002711273
 40
0.7752213710255685
 40
1.0
 40
1.0
 40
1.0
 40
1.0
 10
45.26533672921241
 20
69.69068188554823
 30
0.0
 10
45.2592569075661
 20
69.6940565696026
 30
0.0
 10
45.24709240653206
 20
69.70080863406382
 30
0.0
 10
45.23193161612735
 20
69.71723289568676
 30
0.0
 10
45.22216109083436
 20
69.73608706075926
 30
0.0
 10
45.22098377072817
 20
69.74947181980848
 30
0.0
 10
45.22043612790799
 20
69.75569788114457
 30
0.0
  0
LINE
  5
24B
330
1F
100
AcDbEntity
  8
SLD-0
  6
Continuous
370
    15
100
AcDbLine
 10
45.2204361279
 20
69.7556978811
 30
0.0
 11
45.2204361279
 21
71.8393589305
 31
0.0
  0
ARC
  5
24C
330
1F
100
AcDbEntity
  8
SLD-0
  6
Continuous
370
    15
100
AcDbCircle
 10
81.0809482972
 20
71.8472955464
 30
0.0
 40
0.0400815679355857
100
AcDbArc
 50
261.9503607283
 51
348.5792924078
  0
LINE
  5
24D
330
1F
100
AcDbEntity
  8
SLD-0
  6
Continuous
370
    15
100
AcDbLine
 10
81.120236237
 20
71.8393589305
 30
0.0
 11
81.120236237
 21
69.7556978811
 31
0.0
  0
SPLINE
  5
24E
330
1F
100
AcDbEntity
  8
SLD-0
  6
Continuous
370
    15
100
AcDbSpline
210
0.0
220
0.0
230
1.0
 70
     8
 71
     3
 72
    11
 73
     7
 74
     0
 42
0.00000001
 43
0.00000001
 12
1.0
 22
0.0
 32
0.0
 13
1.0
 23
0.0
 33
0.0
 40
0.0
 40
0.0
 40
0.0
 40
0.0
 40
0.2582652043578707
 40
0.5167242912644537
 40
0.7752060992888176
 40
1.0
 40
1.0
 40
1.0
 40
1.0
 10
81.12023623702036
 20
69.75569788114457
 30
0.0
 10
81.11951468350243
 20
69.74853439413938
 30
0.0
 10
81.11807103478837
 20
69.73420204241998
 30
0.0
 10
81.10700507298219
 20
69.71488416169002
 30
0.0
 10
81.09198148945893
 20
69.69974310213995
 30
0.0
 10
81.08062026641272
 20
69.69355858890573
 30
0.0
 10
81.07533563571594
 20
69.69068188554823
 30
0.0
  0
LINE
  5
24F
330
1F
100
AcDbEntity
  8
SLD-0
  6
Continuous
370
    15
100
AcDbLine
 10
81.0753356357
 20
71.8076088973
 30
0.0
 11
81.0753356357
 21
69.6906818855
 31
0.0
  0
LINE
  5
250
330
1F
100
AcDbEntity
  8
SLD-0
  6
Continuous
370
    15
100
AcDbLine
 10
81.0753356357
 20
69.6906818855
 30
0.0
 11
45.2653367292
 21
69.6906818855
 31
0.0
  0
LINE
  5
251
330
1F
100
AcDbEntity
  8
SLD-0
  6
Continuous
370
    15
100
AcDbLine
 10
45.2503358358
 20
71.8393589305
 30
0.0
 11
45.2204361279
 21
71.8393589305
 31
0.0
  0
ARC
  5
252
330
1F
100
AcDbEntity
  8
SLD-0
  6
Continuous
370
    15
100
AcDbCircle
 10
45.263461078
 20
71.8420105041
 30
0.0
 40
0.0133904004228801
100
AcDbArc
 50
191.4212260876
 51
278.0521468679
  0
ARC
  5
253
330
1F
100
AcDbEntity
  8
SLD-0
  6
Continuous
370
    15
100
AcDbCircle
 10
81.077211287
 20
71.8420105041
 30
0.0
 40
0.0133904004228667
100
AcDbArc
 50
261.947853132
 51
348.5787739124
  0
LINE
  5
254
330
1F
100
AcDbEntity
  8
SLD-0
  6
Continuous
370
    15
100
AcDbLine
 10
81.0903365291
 20
71.8393589305
 30
0.0
 11
81.120236237
 21
71.8393589305
 31
0.0
  0
LINE
  5
255
330
1F
100
AcDbEntity
  8
SLD-0
  6
Continuous
370
    15
100
AcDbLine
 10
81.0903365291
 20
72.3052912547
 30
0.0
 11
81.0903365291
 21
71.8393589305
 31
0.0
  0
LINE
  5
256
330
1F
100
AcDbEntity
  8
SLD-0
  6
Continuous
370
    15
100
AcDbLine
 10
81.120236237
 20
72.3052912547
 30
0.0
 11
81.120236237
 21
71.8393589305
 31
0.0
  0
LINE
  5
257
330
1F
100
AcDbEntity
  8
SLD-0
  6
Continuous
370
    15
100
AcDbLine
 10
45.2503358358
 20
72.3052912547
 30
0.0
 11
45.2503358358
 21
71.8393589305
 31
0.0
  0
LINE
  5
258
330
1F
100
AcDbEntity
  8
SLD-0
  6
Continuous
370
    15
100
AcDbLine
 10
45.2204361279
 20
72.3052912547
 30
0.0
 11
45.2204361279
 21
71.8393589305
 31
0.0
  0
SPLINE
  5
259
330
1F
100
AcDbEntity
  8
SLD-0
  6
Continuous
370
    15
100
AcDbSpline
210
0.0
220
0.0
230
1.0
 70
     8
 71
     3
 72
     9
 73
     5
 74
     0
 42
0.00000001
 43
0.00000001
 12
1.0
 22
0.0
 32
0.0
 13
1.0
 23
0.0
 33
0.0
 40
0.0
 40
0.0
 40
0.0
 40
0.0
 40
0.4999200432282249
 40
1.0
 40
1.0
 40
1.0
 40
1.0
 10
81.07533563571594
 20
69.69068188554823
 30
0.0
 10
81.07312101318298
 20
69.68800651594721
 30
0.0
 10
81.06869105970755
 20
69.68265492095264
 30
0.0
 10
81.06426323095114
 20
69.68178455339589
 30
0.0
 10
81.06204896253806
 20
69.68134930002573
 30
0.0
  0
SPLINE
  5
25A
330
1F
100
AcDbEntity
  8
SLD-0
  6
Continuous
370
    15
100
AcDbSpline
210
0.0
220
0.0
230
1.0
 70
     8
 71
     3
 72
     9
 73
     5
 74
     0
 42
0.00000001
 43
0.00000001
 12
1.0
 22
0.0
 32
0.0
 13
1.0
 23
0.0
 33
0.0
 40
0.0
 40
0.0
 40
0.0
 40
0.0
 40
0.5000799567717751
 40
1.0
 40
1.0
 40
1.0
 40
1.0
 10
45.2786234023903
 20
69.68134930002573
 30
0.0
 10
45.2764091339772
 20
69.68178455339589
 30
0.0
 10
45.2719813052208
 20
69.68265492095264
 30
0.0
 10
45.26755135174536
 20
69.68800651594721
 30
0.0
 10
45.26533672921241
 20
69.69068188554823
 30
0.0
  0
LINE
  5
25B
330
1F
100
AcDbEntity
  8
SLD-0
  6
Continuous
370
    15
100
AcDbLine
 10
79.4534568785
 20
90.5015693964
 30
0.0
 11
79.2455809865
 21
91.4795476387
 31
0.0
  0
ARC
  5
25C
330
1F
100
AcDbEntity
  8
SLD-0
  6
Continuous
370
    15
100
AcDbCircle
 10
79.1940322583
 20
91.4685906906
 30
0.0
 40
0.0527000000000194
100
AcDbArc
 50
12.0
 51
32.4411407786
  0
LINE
  5
25D
330
1F
100
AcDbEntity
  8
SLD-0
  6
Continuous
370
    15
100
AcDbLine
 10
82.6759268522
 20
73.055290164
 30
0.0
 11
82.6759268522
 21
73.1662909083
 31
0.0
  0
LINE
  5
25E
330
1F
100
AcDbEntity
  8
SLD-0
  6
Continuous
370
    15
100
AcDbLine
 10
82.6759268522
 20
73.5412909497
 30
0.0
 11
82.6759268522
 21
74.8542909284
 31
0.0
  0
LINE
  5
25F
330
1F
100
AcDbEntity
  8
SLD-0
  6
Continuous
370
    15
100
AcDbLine
 10
82.6759268522
 20
75.288820522
 30
0.0
 11
82.6759268522
 21
75.2999799665
 31
0.0
  0
LINE
  5
260
330
1F
100
AcDbEntity
  8
SLD-0
  6
Continuous
370
    15
100
AcDbLine
 10
82.6542263029
 20
73.5412909497
 30
0.0
 11
82.6542263029
 21
74.8542909284
 31
0.0
  0
ARC
  5
261
330
1F
100
AcDbEntity
  8
SLD-0
  6
Continuous
370
    15
100
AcDbCircle
 10
47.1432525661
 20
91.4685906906
 30
0.0
 40
0.0527000000000004
100
AcDbArc
 50
145.7170300868
 51
168.0163377337
  0
LINE
  5
262
330
1F
100
AcDbEntity
  8
SLD-0
  6
Continuous
370
    15
100
AcDbLine
 10
46.8841155756
 20
90.5015460767
 30
0.0
 11
47.0917004842
 21
91.4795329355
 31
0.0
  0
LINE
  5
263
330
1F
100
AcDbEntity
  8
SLD-0
  6
Continuous
370
    15
100
AcDbLine
 10
43.666221549
 20
73.055290164
 30
0.0
 11
43.666221549
 21
73.1662909083
 31
0.0
  0
LINE
  5
264
330
1F
100
AcDbEntity
  8
SLD-0
  6
Continuous
370
    15
100
AcDbLine
 10
43.666221549
 20
73.5412909497
 30
0.0
 11
43.666221549
 21
74.8542909284
 31
0.0
  0
LINE
  5
265
330
1F
100
AcDbEntity
  8
SLD-0
  6
Continuous
370
    15
100
AcDbLine
 10
43.666221549
 20
75.2925493323
 30
0.0
 11
43.666221549
 21
75.2960692916
 31
0.0
  0
LINE
  5
266
330
1F
100
AcDbEntity
  8
SLD-0
  6
Continuous
370
    15
100
AcDbLine
 10
43.6182210368
 20
73.1516654773
 30
0.0
 11
43.666221549
 21
73.1516654773
 31
0.0
  0
LINE
  5
267
330
1F
100
AcDbEntity
  8
SLD-0
  6
Continuous
370
    15
100
AcDbLine
 10
43.6375643867
 20
74.7292901324
 30
0.0
 11
43.666221549
 21
74.7292901324
 31
0.0
  0
LINE
  5
268
330
1F
100
AcDbEntity
  8
SLD-0
  6
Continuous
370
    15
100
AcDbLine
 10
43.6182210368
 20
73.1516654773
 30
0.0
 11
43.6182210368
 21
73.1662909083
 31
0.0
  0
LINE
  5
269
330
1F
100
AcDbEntity
  8
SLD-0
  6
Continuous
370
    15
100
AcDbLine
 10
43.6032213168
 20
73.1366657572
 30
0.0
 11
43.6032213168
 21
73.0886652451
 31
0.0
  0
ARC
  5
26A
330
1F
100
AcDbEntity
  8
SLD-0
  6
Continuous
370
    15
100
AcDbCircle
 10
43.6032211754
 20
73.1516656906
 30
0.0
 40
0.0630000000000024
100
AcDbArc
 50
270.0
 51
0.0
  0
ARC
  5
26B
330
1F
100
AcDbEntity
  8
SLD-0
  6
Continuous
370
    15
100
AcDbCircle
 10
43.6032211754
 20
73.1516656906
 30
0.0
 40
0.0150000000000006
100
AcDbArc
 50
270.0
 51
0.0
  0
LINE
  5
26C
330
1F
100
AcDbEntity
  8
SLD-0
  6
Continuous
370
    15
100
AcDbLine
 10
42.6662210478
 20
73.0886652451
 30
0.0
 11
43.6032213168
 21
73.0886652451
 31
0.0
  0
LINE
  5
26D
330
1F
100
AcDbEntity
  8
SLD-0
  6
Continuous
370
    15
100
AcDbLine
 10
42.6662210478
 20
73.1366657572
 30
0.0
 11
42.6662210478
 21
73.0886652451
 31
0.0
  0
LINE
  5
26E
330
1F
100
AcDbEntity
  8
SLD-0
  6
Continuous
370
    15
100
AcDbLine
 10
42.6662210478
 20
73.1366657572
 30
0.0
 11
43.6032213168
 21
73.1366657572
 31
0.0
  0
LINE
  5
26F
330
1F
100
AcDbEntity
  8
SLD-0
  6
Continuous
370
    15
100
AcDbLine
 10
82.7239261911
 20
73.1516654773
 30
0.0
 11
82.6759268522
 21
73.1516654773
 31
0.0
  0
LINE
  5
270
330
1F
100
AcDbEntity
  8
SLD-0
  6
Continuous
370
    15
100
AcDbLine
 10
82.7239261911
 20
73.1516654773
 30
0.0
 11
82.7239261911
 21
74.7292901324
 31
0.0
  0
LINE
  5
271
330
1F
100
AcDbEntity
  8
SLD-0
  6
Continuous
370
    15
100
AcDbLine
 10
82.7239261911
 20
74.7292901324
 30
0.0
 11
82.7212639285
 21
74.7292901324
 31
0.0
  0
LINE
  5
272
330
1F
100
AcDbEntity
  8
SLD-0
  6
Continuous
370
    15
100
AcDbLine
 10
82.6995645525
 20
74.7292901324
 30
0.0
 11
82.6759268522
 21
74.7292901324
 31
0.0
  0
LINE
  5
273
330
1F
100
AcDbEntity
  8
SLD-0
  6
Continuous
370
    15
100
AcDbLine
 10
82.7389259111
 20
73.1366657572
 30
0.0
 11
82.7389259111
 21
73.0886652451
 31
0.0
  0
LINE
  5
274
330
1F
100
AcDbEntity
  8
SLD-0
  6
Continuous
370
    15
100
AcDbLine
 10
83.6759273535
 20
73.0886652451
 30
0.0
 11
82.7389259111
 21
73.0886652451
 31
0.0
  0
LINE
  5
275
330
1F
100
AcDbEntity
  8
SLD-0
  6
Continuous
370
    15
100
AcDbLine
 10
83.6759273535
 20
73.1366657572
 30
0.0
 11
83.6759273535
 21
73.0886652451
 31
0.0
  0
LINE
  5
276
330
1F
100
AcDbEntity
  8
SLD-0
  6
Continuous
370
    15
100
AcDbLine
 10
83.6759273535
 20
73.1366657572
 30
0.0
 11
82.7389259111
 21
73.1366657572
 31
0.0
  0
ARC
  5
277
330
1F
100
AcDbEntity
  8
SLD-0
  6
Continuous
370
    15
100
AcDbCircle
 10
82.7389264211
 20
73.1516656906
 30
0.0
 40
0.0630000000000024
100
AcDbArc
 50
180.0
 51
270.0
  0
ARC
  5
278
330
1F
100
AcDbEntity
  8
SLD-0
  6
Continuous
370
    15
100
AcDbCircle
 10
82.7389264211
 20
73.1516656906
 30
0.0
 40
0.0150000000000006
100
AcDbArc
 50
180.0
 51
270.0
  0
LINE
  5
279
330
1F
100
AcDbEntity
  8
SLD-0
  6
Continuous
370
    15
100
AcDbLine
 10
52.8874343848
 20
73.0306903415
 30
0.0
 11
52.8874343848
 21
89.9056907334
 31
0.0
  0
LINE
  5
27A
330
1F
100
AcDbEntity
  8
SLD-0
  6
Continuous
370
    15
100
AcDbLine
 10
52.8874343848
 20
73.0306903415
 30
0.0
 11
52.8096949095
 21
73.0306903415
 31
0.0
  0
LINE
  5
27B
330
1F
100
AcDbEntity
  8
SLD-0
  6
Continuous
370
    15
100
AcDbLine
 10
52.8096949095
 20
89.9056907334
 30
0.0
 11
52.8096949095
 21
73.0306903415
 31
0.0
  0
LINE
  5
27C
330
1F
100
AcDbEntity
  8
SLD-0
  6
Continuous
370
    15
100
AcDbLine
 10
52.8096949095
 20
89.9056907334
 30
0.0
 11
52.8874343848
 21
89.9056907334
 31
0.0
  0
LWPOLYLINE
  5
27D
330
1F
100
AcDbEntity
  8
SLD-0
  6
Continuous
370
    15
100
AcDbPolyline
 90
       20
 70
   128
 43
0.0
 10
52.3446930279
 20
78.655690961
 10
52.3550604815
 20
78.6539861274
 10
52.3651439916
 20
78.6489173859
 10
52.3746701749
 20
78.6406243617
 10
52.3833785543
 20
78.6293335055
 10
52.3910321192
 20
78.6153510537
 10
52.3974220188
 20
78.5990595085
 10
52.4023722549
 20
78.580902385
 10
52.4057502425
 20
78.5613759972
 10
52.4074621161
 20
78.5410130324
 10
52.4074621161
 20
78.5203684709
 10
52.4057502425
 20
78.5000055062
 10
52.4023722549
 20
78.4804791184
 10
52.3974220188
 20
78.4623219948
 10
52.3910321192
 20
78.4460304497
 10
52.3833785543
 20
78.4320479979
 10
52.3746701749
 20
78.4207559683
 10
52.3651439916
 20
78.4124641174
 10
52.3550604815
 20
78.407395376
 10
52.3446930279
 20
78.4056905424
  0
LINE
  5
27E
330
1F
100
AcDbEntity
  8
SLD-0
  6
Continuous
370
    15
100
AcDbLine
 10
52.3446930279
 20
78.655690961
 30
0.0
 11
51.840822582
 21
78.655690961
 31
0.0
  0
LWPOLYLINE
  5
27F
330
1F
100
AcDbEntity
  8
SLD-0
  6
Continuous
370
    15
100
AcDbPolyline
 90
       20
 70
   128
 43
0.0
 10
51.840822582
 20
78.4056905424
 10
51.8304551284
 20
78.407395376
 10
51.8203716182
 20
78.4124641174
 10
51.8108454349
 20
78.4207559683
 10
51.8021370555
 20
78.4320479979
 10
51.7944834906
 20
78.4460304497
 10
51.7880947644
 20
78.4623219948
 10
51.783143355
 20
78.4804791184
 10
51.7797653673
 20
78.5000055062
 10
51.7780534938
 20
78.5203684709
 10
51.7780534938
 20
78.5410130324
 10
51.7797653673
 20
78.5613759972
 10
51.783143355
 20
78.580902385
 10
51.7880947644
 20
78.5990595085
 10
51.7944834906
 20
78.6153510537
 10
51.8021370555
 20
78.6293335055
 10
51.8108454349
 20
78.6406243617
 10
51.8203716182
 20
78.6489173859
 10
51.8304551284
 20
78.6539861274
 10
51.840822582
 20
78.655690961
  0
LINE
  5
280
330
1F
100
AcDbEntity
  8
SLD-0
  6
Continuous
370
    15
100
AcDbLine
 10
52.3446930279
 20
78.4056905424
 30
0.0
 11
51.840822582
 21
78.4056905424
 31
0.0
  0
LINE
  5
281
330
1F
100
AcDbEntity
  8
SLD-0
  6
Continuous
370
    15
100
AcDbLine
 10
51.9476510012
 20
73.2806907601
 30
0.0
 11
51.9476510012
 21
75.405690212
 31
0.0
  0
LINE
  5
282
330
1F
100
AcDbEntity
  8
SLD-0
  6
Continuous
370
    15
100
AcDbLine
 10
51.9388335031
 20
75.405690212
 30
0.0
 11
51.9476510012
 21
75.405690212
 31
0.0
  0
LINE
  5
283
330
1F
100
AcDbEntity
  8
SLD-0
  6
Continuous
370
    15
100
AcDbLine
 10
51.9388335031
 20
75.405690212
 30
0.0
 11
51.0856739722
 21
75.405690212
 31
0.0
  0
LINE
  5
284
330
1F
100
AcDbEntity
  8
SLD-0
  6
Continuous
370
    15
100
AcDbLine
 10
51.0856739722
 20
75.405690212
 30
0.0
 11
51.0856739722
 21
89.9056907334
 31
0.0
  0
LINE
  5
285
330
1F
100
AcDbEntity
  8
SLD-0
  6
Continuous
370
    15
100
AcDbLine
 10
52.8096949095
 20
73.0306903415
 30
0.0
 11
52.0736186127
 21
73.0306903415
 31
0.0
  0
LINE
  5
286
330
1F
100
AcDbEntity
  8
SLD-0
  6
Continuous
370
    15
100
AcDbLine
 10
52.0736186127
 20
73.0306903415
 30
0.0
 11
51.9476510012
 21
73.2806907601
 31
0.0
  0
LWPOLYLINE
  5
287
330
1F
100
AcDbEntity
  8
SLD-0
  6
Continuous
370
    15
100
AcDbPolyline
 90
       20
 70
   128
 43
0.0
 10
52.3446930279
 20
81.6556901181
 10
52.3550604815
 20
81.6539852844
 10
52.3651439916
 20
81.6489177163
 10
52.3746701749
 20
81.6406246921
 10
52.3833785543
 20
81.6293338359
 10
52.3910321192
 20
81.6153513841
 10
52.3974220188
 20
81.5990586656
 10
52.4023722549
 20
81.5809027154
 10
52.4057502425
 20
81.5613763276
 10
52.4074621161
 20
81.5410133628
 10
52.4074621161
 20
81.5203688013
 10
52.4057502425
 20
81.5000046632
 10
52.4023722549
 20
81.4804782755
 10
52.3974220188
 20
81.4623223252
 10
52.3910321192
 20
81.4460307801
 10
52.3833785543
 20
81.4320483283
 10
52.3746701749
 20
81.4207562987
 10
52.3651439916
 20
81.4124632745
 10
52.3550604815
 20
81.4073957064
 10
52.3446930279
 20
81.4056908728
  0
LINE
  5
288
330
1F
100
AcDbEntity
  8
SLD-0
  6
Continuous
370
    15
100
AcDbLine
 10
51.840822582
 20
81.6556901181
 30
0.0
 11
52.3446930279
 21
81.6556901181
 31
0.0
  0
LWPOLYLINE
  5
289
330
1F
100
AcDbEntity
  8
SLD-0
  6
Continuous
370
    15
100
AcDbPolyline
 90
       20
 70
   128
 43
0.0
 10
51.840822582
 20
81.4056908728
 10
51.8304551284
 20
81.4073957064
 10
51.8203716182
 20
81.4124632745
 10
51.8108454349
 20
81.4207562987
 10
51.8021370555
 20
81.4320483283
 10
51.7944834906
 20
81.4460307801
 10
51.7880947644
 20
81.4623223252
 10
51.783143355
 20
81.4804782755
 10
51.7797653673
 20
81.5000046632
 10
51.7780534938
 20
81.5203688013
 10
51.7780534938
 20
81.5410133628
 10
51.7797653673
 20
81.5613763276
 10
51.783143355
 20
81.5809027154
 10
51.7880947644
 20
81.5990586656
 10
51.7944834906
 20
81.6153513841
 10
51.8021370555
 20
81.6293338359
 10
51.8108454349
 20
81.6406246921
 10
51.8203716182
 20
81.6489177163
 10
51.8304551284
 20
81.6539852844
 10
51.840822582
 20
81.6556901181
  0
LINE
  5
28A
330
1F
100
AcDbEntity
  8
SLD-0
  6
Continuous
370
    15
100
AcDbLine
 10
52.3446930279
 20
81.4056908728
 30
0.0
 11
51.840822582
 21
81.4056908728
 31
0.0
  0
LINE
  5
28B
330
1F
100
AcDbEntity
  8
SLD-0
  6
Continuous
370
    15
100
AcDbLine
 10
52.8096949095
 20
89.9056907334
 30
0.0
 11
51.0856739722
 21
89.9056907334
 31
0.0
  0
LINE
  5
28C
330
1F
100
AcDbEntity
  8
SLD-0
  6
Continuous
370
    15
100
AcDbLine
 10
54.6114547354
 20
89.9056907334
 30
0.0
 11
54.6114547354
 21
75.405690212
 31
0.0
  0
LINE
  5
28D
330
1F
100
AcDbEntity
  8
SLD-0
  6
Continuous
370
    15
100
AcDbLine
 10
54.6114547354
 20
75.405690212
 30
0.0
 11
53.7582957912
 21
75.405690212
 31
0.0
  0
LINE
  5
28E
330
1F
100
AcDbEntity
  8
SLD-0
  6
Continuous
370
    15
100
AcDbLine
 10
53.7582957912
 20
75.405690212
 30
0.0
 11
53.7494777064
 21
75.405690212
 31
0.0
  0
LINE
  5
28F
330
1F
100
AcDbEntity
  8
SLD-0
  6
Continuous
370
    15
100
AcDbLine
 10
53.7494777064
 20
73.2806907601
 30
0.0
 11
53.7494777064
 21
75.405690212
 31
0.0
  0
LINE
  5
290
330
1F
100
AcDbEntity
  8
SLD-0
  6
Continuous
370
    15
100
AcDbLine
 10
53.6235100949
 20
73.0306903415
 30
0.0
 11
53.7494777064
 21
73.2806907601
 31
0.0
  0
LINE
  5
291
330
1F
100
AcDbEntity
  8
SLD-0
  6
Continuous
370
    15
100
AcDbLine
 10
53.6235100949
 20
73.0306903415
 30
0.0
 11
52.8874343848
 21
73.0306903415
 31
0.0
  0
LINE
  5
292
330
1F
100
AcDbEntity
  8
SLD-0
  6
Continuous
370
    15
100
AcDbLine
 10
53.3524356797
 20
81.4056908728
 30
0.0
 11
53.8563067123
 21
81.4056908728
 31
0.0
  0
LWPOLYLINE
  5
293
330
1F
100
AcDbEntity
  8
SLD-0
  6
Continuous
370
    15
100
AcDbPolyline
 90
       20
 70
   128
 43
0.0
 10
53.8563067123
 20
81.4056908728
 10
53.8666735792
 20
81.4073957064
 10
53.876757676
 20
81.4124632745
 10
53.8862838593
 20
81.4207562987
 10
53.8949922387
 20
81.4320483283
 10
53.902645217
 20
81.4460307801
 10
53.9090345298
 20
81.4623223252
 10
53.9139853526
 20
81.4804782755
 10
53.9173633403
 20
81.5000046632
 10
53.9190752138
 20
81.5203688013
 10
53.9190752138
 20
81.5410133628
 10
53.9173633403
 20
81.5613763276
 10
53.9139853526
 20
81.5809027154
 10
53.9090345298
 20
81.5990586656
 10
53.902645217
 20
81.6153513841
 10
53.8949922387
 20
81.6293338359
 10
53.8862838593
 20
81.6406246921
 10
53.876757676
 20
81.6489177163
 10
53.8666735792
 20
81.6539852844
 10
53.8563067123
 20
81.6556901181
  0
LINE
  5
294
330
1F
100
AcDbEntity
  8
SLD-0
  6
Continuous
370
    15
100
AcDbLine
 10
53.8563067123
 20
81.6556901181
 30
0.0
 11
53.3524356797
 21
81.6556901181
 31
0.0
  0
LWPOLYLINE
  5
295
330
1F
100
AcDbEntity
  8
SLD-0
  6
Continuous
370
    15
100
AcDbPolyline
 90
       20
 70
   128
 43
0.0
 10
53.3524356797
 20
81.6556901181
 10
53.3420688128
 20
81.6539852844
 10
53.3319847159
 20
81.6489177163
 10
53.322457946
 20
81.6406246921
 10
53.3137495666
 20
81.6293338359
 10
53.306097175
 20
81.6153513841
 10
53.2997072755
 20
81.5990586656
 10
53.2947570393
 20
81.5809027154
 10
53.2913790517
 20
81.5613763276
 10
53.2896671781
 20
81.5410133628
 10
53.2896671781
 20
81.5203688013
 10
53.2913790517
 20
81.5000046632
 10
53.2947570393
 20
81.4804782755
 10
53.2997072755
 20
81.4623223252
 10
53.306097175
 20
81.4460307801
 10
53.3137495666
 20
81.4320483283
 10
53.322457946
 20
81.4207562987
 10
53.3319847159
 20
81.4124632745
 10
53.3420688128
 20
81.4073957064
 10
53.3524356797
 20
81.4056908728
  0
LINE
  5
296
330
1F
100
AcDbEntity
  8
SLD-0
  6
Continuous
370
    15
100
AcDbLine
 10
53.3524356797
 20
78.4056905424
 30
0.0
 11
53.8563067123
 21
78.4056905424
 31
0.0
  0
LWPOLYLINE
  5
297
330
1F
100
AcDbEntity
  8
SLD-0
  6
Continuous
370
    15
100
AcDbPolyline
 90
       20
 70
   128
 43
0.0
 10
53.8563067123
 20
78.4056905424
 10
53.8666735792
 20
78.407395376
 10
53.876757676
 20
78.4124641174
 10
53.8862838593
 20
78.4207559683
 10
53.8949922387
 20
78.4320479979
 10
53.902645217
 20
78.4460304497
 10
53.9090345298
 20
78.4623219948
 10
53.9139853526
 20
78.4804791184
 10
53.9173633403
 20
78.5000055062
 10
53.9190752138
 20
78.5203684709
 10
53.9190752138
 20
78.5410130324
 10
53.9173633403
 20
78.5613759972
 10
53.9139853526
 20
78.580902385
 10
53.9090345298
 20
78.5990595085
 10
53.902645217
 20
78.6153510537
 10
53.8949922387
 20
78.6293335055
 10
53.8862838593
 20
78.6406243617
 10
53.876757676
 20
78.6489173859
 10
53.8666735792
 20
78.6539861274
 10
53.8563067123
 20
78.655690961
  0
LINE
  5
298
330
1F
100
AcDbEntity
  8
SLD-0
  6
Continuous
370
    15
100
AcDbLine
 10
53.8563067123
 20
78.655690961
 30
0.0
 11
53.3524356797
 21
78.655690961
 31
0.0
  0
LWPOLYLINE
  5
299
330
1F
100
AcDbEntity
  8
SLD-0
  6
Continuous
370
    15
100
AcDbPolyline
 90
       20
 70
   128
 43
0.0
 10
53.3524356797
 20
78.655690961
 10
53.3420688128
 20
78.6539861274
 10
53.3319847159
 20
78.6489173859
 10
53.322457946
 20
78.6406243617
 10
53.3137495666
 20
78.6293335055
 10
53.306097175
 20
78.6153510537
 10
53.2997072755
 20
78.5990595085
 10
53.2947570393
 20
78.580902385
 10
53.2913790517
 20
78.5613759972
 10
53.2896671781
 20
78.5410130324
 10
53.2896671781
 20
78.5203684709
 10
53.2913790517
 20
78.5000055062
 10
53.2947570393
 20
78.4804791184
 10
53.2997072755
 20
78.4623219948
 10
53.306097175
 20
78.4460304497
 10
53.3137495666
 20
78.4320479979
 10
53.322457946
 20
78.4207559683
 10
53.3319847159
 20
78.4124641174
 10
53.3420688128
 20
78.407395376
 10
53.3524356797
 20
78.4056905424
  0
LINE
  5
29A
330
1F
100
AcDbEntity
  8
SLD-0
  6
Continuous
370
    15
100
AcDbLine
 10
54.6114547354
 20
89.9056907334
 30
0.0
 11
52.8874343848
 21
89.9056907334
 31
0.0
  0
LWPOLYLINE
  5
29B
330
1F
100
AcDbEntity
  8
SLD-0
  6
Continuous
370
    15
100
AcDbPolyline
 90
       20
 70
   128
 43
0.0
 10
53.8303933583
 20
81.4056908728
 10
53.8407602252
 20
81.4073957064
 10
53.8508437354
 20
81.4124632745
 10
53.8603699187
 20
81.4207562987
 10
53.8690788847
 20
81.4320483283
 10
53.876731863
 20
81.4460307801
 10
53.8831211758
 20
81.4623223252
 10
53.8880719986
 20
81.4804782755
 10
53.8914499863
 20
81.5000046632
 10
53.8931618598
 20
81.5203688013
 10
53.8931618598
 20
81.5410133628
 10
53.8914499863
 20
81.5613763276
 10
53.8880719986
 20
81.5809027154
 10
53.8831211758
 20
81.5990586656
 10
53.876731863
 20
81.6153513841
 10
53.8690788847
 20
81.6293338359
 10
53.8603699187
 20
81.6406246921
 10
53.8508437354
 20
81.6489177163
 10
53.8407602252
 20
81.6539852844
 10
53.8303933583
 20
81.6556901181
  0
LWPOLYLINE
  5
29C
330
1F
100
AcDbEntity
  8
SLD-0
  6
Continuous
370
    15
100
AcDbPolyline
 90
       20
 70
   128
 43
0.0
 10
51.8667353493
 20
81.4056908728
 10
51.856369069
 20
81.4073957064
 10
51.8462855589
 20
81.4124632745
 10
51.8367593756
 20
81.4207562987
 10
51.8280498229
 20
81.4320483283
 10
51.8203974313
 20
81.4460307801
 10
51.8140075317
 20
81.4623223252
 10
51.8090572956
 20
81.4804782755
 10
51.805679308
 20
81.5000046632
 10
51.8039674344
 20
81.5203688013
 10
51.8039674344
 20
81.5410133628
 10
51.805679308
 20
81.5613763276
 10
51.8090572956
 20
81.5809027154
 10
51.8140075317
 20
81.5990586656
 10
51.8203974313
 20
81.6153513841
 10
51.8280498229
 20
81.6293338359
 10
51.8367593756
 20
81.6406246921
 10
51.8462855589
 20
81.6489177163
 10
51.856369069
 20
81.6539852844
 10
51.8667353493
 20
81.6556901181
  0
LWPOLYLINE
  5
29D
330
1F
100
AcDbEntity
  8
SLD-0
  6
Continuous
370
    15
100
AcDbPolyline
 90
       20
 70
   128
 43
0.0
 10
51.8667353493
 20
78.4056905424
 10
51.856369069
 20
78.407395376
 10
51.8462855589
 20
78.4124641174
 10
51.8367593756
 20
78.4207559683
 10
51.8280498229
 20
78.4320479979
 10
51.8203974313
 20
78.4460304497
 10
51.8140075317
 20
78.4623219948
 10
51.8090572956
 20
78.4804791184
 10
51.805679308
 20
78.5000055062
 10
51.8039674344
 20
78.5203684709
 10
51.8039674344
 20
78.5410130324
 10
51.805679308
 20
78.5613759972
 10
51.8090572956
 20
78.580902385
 10
51.8140075317
 20
78.5990595085
 10
51.8203974313
 20
78.6153510537
 10
51.8280498229
 20
78.6293335055
 10
51.8367593756
 20
78.6406243617
 10
51.8462855589
 20
78.6489173859
 10
51.856369069
 20
78.6539861274
 10
51.8667353493
 20
78.655690961
  0
LWPOLYLINE
  5
29E
330
1F
100
AcDbEntity
  8
SLD-0
  6
Continuous
370
    15
100
AcDbPolyline
 90
       20
 70
   128
 43
0.0
 10
53.8303933583
 20
78.4056905424
 10
53.8407602252
 20
78.407395376
 10
53.8508437354
 20
78.4124641174
 10
53.8603699187
 20
78.4207559683
 10
53.8690788847
 20
78.4320479979
 10
53.876731863
 20
78.4460304497
 10
53.8831211758
 20
78.4623219948
 10
53.8880719986
 20
78.4804791184
 10
53.8914499863
 20
78.5000055062
 10
53.8931618598
 20
78.5203684709
 10
53.8931618598
 20
78.5410130324
 10
53.8914499863
 20
78.5613759972
 10
53.8880719986
 20
78.580902385
 10
53.8831211758
 20
78.5990595085
 10
53.876731863
 20
78.6153510537
 10
53.8690788847
 20
78.6293335055
 10
53.8603699187
 20
78.6406243617
 10
53.8508437354
 20
78.6489173859
 10
53.8407602252
 20
78.6539861274
 10
53.8303933583
 20
78.655690961
  0
LINE
  5
29F
330
1F
100
AcDbEntity
  8
SLD-0
  6
Continuous
370
    15
100
AcDbLine
 10
51.0856739722
 20
89.9056907334
 30
0.0
 11
51.0727181752
 21
89.9056907334
 31
0.0
  0
LINE
  5
2A0
330
1F
100
AcDbEntity
  8
SLD-0
  6
Continuous
370
    15
100
AcDbLine
 10
51.0727181752
 20
75.405690212
 30
0.0
 11
51.0856739722
 21
75.405690212
 31
0.0
  0
LINE
  5
2A1
330
1F
100
AcDbEntity
  8
SLD-0
  6
Continuous
370
    15
100
AcDbLine
 10
51.0727181752
 20
89.9056907334
 30
0.0
 11
51.0727181752
 21
75.405690212
 31
0.0
  0
LINE
  5
2A2
330
1F
100
AcDbEntity
  8
SLD-0
  6
Continuous
370
    15
100
AcDbLine
 10
54.6244111191
 20
89.9056907334
 30
0.0
 11
54.6244111191
 21
75.405690212
 31
0.0
  0
LINE
  5
2A3
330
1F
100
AcDbEntity
  8
SLD-0
  6
Continuous
370
    15
100
AcDbLine
 10
54.6244111191
 20
75.405690212
 30
0.0
 11
54.6114547354
 21
75.405690212
 31
0.0
  0
LINE
  5
2A4
330
1F
100
AcDbEntity
  8
SLD-0
  6
Continuous
370
    15
100
AcDbLine
 10
54.6114547354
 20
89.9056907334
 30
0.0
 11
54.6244111191
 21
89.9056907334
 31
0.0
  0
LINE
  5
2A5
330
1F
100
AcDbEntity
  8
SLD-0
  6
Continuous
370
    15
100
AcDbLine
 10
55.0985643083
 20
75.405690212
 30
0.0
 11
54.6244111191
 21
75.405690212
 31
0.0
  0
LINE
  5
2A6
330
1F
100
AcDbEntity
  8
SLD-0
  6
Continuous
370
    15
100
AcDbLine
 10
55.0985643083
 20
89.9056907334
 30
0.0
 11
54.6244111191
 21
89.9056907334
 31
0.0
  0
LINE
  5
2A7
330
1F
100
AcDbEntity
  8
SLD-0
  6
Continuous
370
    15
100
AcDbLine
 10
55.0985643083
 20
89.9056907334
 30
0.0
 11
55.0985643083
 21
75.405690212
 31
0.0
  0
LINE
  5
2A8
330
1F
100
AcDbEntity
  8
SLD-0
  6
Continuous
370
    15
100
AcDbLine
 10
51.0727181752
 20
75.405690212
 30
0.0
 11
50.5985643993
 21
75.405690212
 31
0.0
  0
LINE
  5
2A9
330
1F
100
AcDbEntity
  8
SLD-0
  6
Continuous
370
    15
100
AcDbLine
 10
51.0727181752
 20
89.9056907334
 30
0.0
 11
50.5985643993
 21
89.9056907334
 31
0.0
  0
LINE
  5
2AA
330
1F
100
AcDbEntity
  8
SLD-0
  6
Continuous
370
    15
100
AcDbLine
 10
50.5985643993
 20
89.9056907334
 30
0.0
 11
50.5985643993
 21
75.405690212
 31
0.0
  0
LINE
  5
2AB
330
1F
100
AcDbEntity
  8
SLD-0
  6
Continuous
370
    15
100
AcDbLine
 10
73.5274340297
 20
73.0306903415
 30
0.0
 11
73.5274340297
 21
89.9056907334
 31
0.0
  0
LINE
  5
2AC
330
1F
100
AcDbEntity
  8
SLD-0
  6
Continuous
370
    15
100
AcDbLine
 10
73.5274340297
 20
73.0306903415
 30
0.0
 11
73.4496945544
 21
73.0306903415
 31
0.0
  0
LINE
  5
2AD
330
1F
100
AcDbEntity
  8
SLD-0
  6
Continuous
370
    15
100
AcDbLine
 10
73.4496945544
 20
89.9056907334
 30
0.0
 11
73.4496945544
 21
73.0306903415
 31
0.0
  0
LINE
  5
2AE
330
1F
100
AcDbEntity
  8
SLD-0
  6
Continuous
370
    15
100
AcDbLine
 10
73.4496945544
 20
89.9056907334
 30
0.0
 11
73.5274340297
 21
89.9056907334
 31
0.0
  0
LWPOLYLINE
  5
2AF
330
1F
100
AcDbEntity
  8
SLD-0
  6
Continuous
370
    15
100
AcDbPolyline
 90
       20
 70
   128
 43
0.0
 10
72.9846932595
 20
78.655690961
 10
72.9950601264
 20
78.6539861274
 10
73.0051442233
 20
78.6489173859
 10
73.0146709932
 20
78.6406243617
 10
73.0233793726
 20
78.6293335055
 10
73.0310317642
 20
78.6153510537
 10
73.0374216637
 20
78.5990595085
 10
73.0423718999
 20
78.580902385
 10
73.0457498875
 20
78.5613759972
 10
73.0474617611
 20
78.5410130324
 10
73.0474617611
 20
78.5203684709
 10
73.0457498875
 20
78.5000055062
 10
73.0423718999
 20
78.4804791184
 10
73.0374216637
 20
78.4623219948
 10
73.0310317642
 20
78.4460304497
 10
73.0233793726
 20
78.4320479979
 10
73.0146709932
 20
78.4207559683
 10
73.0051442233
 20
78.4124641174
 10
72.9950601264
 20
78.407395376
 10
72.9846932595
 20
78.4056905424
  0
LINE
  5
2B0
330
1F
100
AcDbEntity
  8
SLD-0
  6
Continuous
370
    15
100
AcDbLine
 10
72.9846932595
 20
78.655690961
 30
0.0
 11
72.4808222269
 21
78.655690961
 31
0.0
  0
LWPOLYLINE
  5
2B1
330
1F
100
AcDbEntity
  8
SLD-0
  6
Continuous
370
    15
100
AcDbPolyline
 90
       20
 70
   128
 43
0.0
 10
72.4808222269
 20
78.4056905424
 10
72.47045536
 20
78.407395376
 10
72.4603718498
 20
78.4124641174
 10
72.4508456666
 20
78.4207559683
 10
72.4421367005
 20
78.4320479979
 10
72.4344837222
 20
78.4460304497
 10
72.4280944094
 20
78.4623219948
 10
72.4231435866
 20
78.4804791184
 10
72.4197655989
 20
78.5000055062
 10
72.4180537254
 20
78.5203684709
 10
72.4180537254
 20
78.5410130324
 10
72.4197655989
 20
78.5613759972
 10
72.4231435866
 20
78.580902385
 10
72.4280944094
 20
78.5990595085
 10
72.4344837222
 20
78.6153510537
 10
72.4421367005
 20
78.6293335055
 10
72.4508456666
 20
78.6406243617
 10
72.4603718498
 20
78.6489173859
 10
72.47045536
 20
78.6539861274
 10
72.4808222269
 20
78.655690961
  0
LINE
  5
2B2
330
1F
100
AcDbEntity
  8
SLD-0
  6
Continuous
370
    15
100
AcDbLine
 10
72.9846932595
 20
78.4056905424
 30
0.0
 11
72.4808222269
 21
78.4056905424
 31
0.0
  0
LINE
  5
2B3
330
1F
100
AcDbEntity
  8
SLD-0
  6
Continuous
370
    15
100
AcDbLine
 10
72.5876512328
 20
73.2806907601
 30
0.0
 11
72.5876512328
 21
75.405690212
 31
0.0
  0
LINE
  5
2B4
330
1F
100
AcDbEntity
  8
SLD-0
  6
Continuous
370
    15
100
AcDbLine
 10
72.578833148
 20
75.405690212
 30
0.0
 11
72.5876512328
 21
75.405690212
 31
0.0
  0
LINE
  5
2B5
330
1F
100
AcDbEntity
  8
SLD-0
  6
Continuous
370
    15
100
AcDbLine
 10
72.578833148
 20
75.405690212
 30
0.0
 11
71.7256747905
 21
75.405690212
 31
0.0
  0
LINE
  5
2B6
330
1F
100
AcDbEntity
  8
SLD-0
  6
Continuous
370
    15
100
AcDbLine
 10
71.7256747905
 20
75.405690212
 30
0.0
 11
71.7256747905
 21
89.9056907334
 31
0.0
  0
LINE
  5
2B7
330
1F
100
AcDbEntity
  8
SLD-0
  6
Continuous
370
    15
100
AcDbLine
 10
73.4496945544
 20
89.9056907334
 30
0.0
 11
71.7256747905
 21
89.9056907334
 31
0.0
  0
LINE
  5
2B8
330
1F
100
AcDbEntity
  8
SLD-0
  6
Continuous
370
    15
100
AcDbLine
 10
73.4496945544
 20
73.0306903415
 30
0.0
 11
72.7136188443
 21
73.0306903415
 31
0.0
  0
LINE
  5
2B9
330
1F
100
AcDbEntity
  8
SLD-0
  6
Continuous
370
    15
100
AcDbLine
 10
72.7136188443
 20
73.0306903415
 30
0.0
 11
72.5876512328
 21
73.2806907601
 31
0.0
  0
LWPOLYLINE
  5
2BA
330
1F
100
AcDbEntity
  8
SLD-0
  6
Continuous
370
    15
100
AcDbPolyline
 90
       20
 70
   128
 43
0.0
 10
72.9846932595
 20
81.6556901181
 10
72.9950601264
 20
81.6539852844
 10
73.0051442233
 20
81.6489177163
 10
73.0146709932
 20
81.6406246921
 10
73.0233793726
 20
81.6293338359
 10
73.0310317642
 20
81.6153513841
 10
73.0374216637
 20
81.5990586656
 10
73.0423718999
 20
81.5809027154
 10
73.0457498875
 20
81.5613763276
 10
73.0474617611
 20
81.5410133628
 10
73.0474617611
 20
81.5203688013
 10
73.0457498875
 20
81.5000046632
 10
73.0423718999
 20
81.4804782755
 10
73.0374216637
 20
81.4623223252
 10
73.0310317642
 20
81.4460307801
 10
73.0233793726
 20
81.4320483283
 10
73.0146709932
 20
81.4207562987
 10
73.0051442233
 20
81.4124632745
 10
72.9950601264
 20
81.4073957064
 10
72.9846932595
 20
81.4056908728
  0
LINE
  5
2BB
330
1F
100
AcDbEntity
  8
SLD-0
  6
Continuous
370
    15
100
AcDbLine
 10
72.4808222269
 20
81.6556901181
 30
0.0
 11
72.9846932595
 21
81.6556901181
 31
0.0
  0
LWPOLYLINE
  5
2BC
330
1F
100
AcDbEntity
  8
SLD-0
  6
Continuous
370
    15
100
AcDbPolyline
 90
       20
 70
   128
 43
0.0
 10
72.4808222269
 20
81.4056908728
 10
72.47045536
 20
81.4073957064
 10
72.4603718498
 20
81.4124632745
 10
72.4508456666
 20
81.4207562987
 10
72.4421367005
 20
81.4320483283
 10
72.4344837222
 20
81.4460307801
 10
72.4280944094
 20
81.4623223252
 10
72.4231435866
 20
81.4804782755
 10
72.4197655989
 20
81.5000046632
 10
72.4180537254
 20
81.5203688013
 10
72.4180537254
 20
81.5410133628
 10
72.4197655989
 20
81.5613763276
 10
72.4231435866
 20
81.5809027154
 10
72.4280944094
 20
81.5990586656
 10
72.4344837222
 20
81.6153513841
 10
72.4421367005
 20
81.6293338359
 10
72.4508456666
 20
81.6406246921
 10
72.4603718498
 20
81.6489177163
 10
72.47045536
 20
81.6539852844
 10
72.4808222269
 20
81.6556901181
  0
LINE
  5
2BD
330
1F
100
AcDbEntity
  8
SLD-0
  6
Continuous
370
    15
100
AcDbLine
 10
72.9846932595
 20
81.4056908728
 30
0.0
 11
72.4808222269
 21
81.4056908728
 31
0.0
  0
LINE
  5
2BE
330
1F
100
AcDbEntity
  8
SLD-0
  6
Continuous
370
    15
100
AcDbLine
 10
75.251454967
 20
89.9056907334
 30
0.0
 11
75.251454967
 21
75.405690212
 31
0.0
  0
LINE
  5
2BF
330
1F
100
AcDbEntity
  8
SLD-0
  6
Continuous
370
    15
100
AcDbLine
 10
75.251454967
 20
75.405690212
 30
0.0
 11
74.3982954361
 21
75.405690212
 31
0.0
  0
LINE
  5
2C0
330
1F
100
AcDbEntity
  8
SLD-0
  6
Continuous
370
    15
100
AcDbLine
 10
74.3982954361
 20
75.405690212
 30
0.0
 11
74.389477938
 21
75.405690212
 31
0.0
  0
LINE
  5
2C1
330
1F
100
AcDbEntity
  8
SLD-0
  6
Continuous
370
    15
100
AcDbLine
 10
74.389477938
 20
73.2806907601
 30
0.0
 11
74.389477938
 21
75.405690212
 31
0.0
  0
LINE
  5
2C2
330
1F
100
AcDbEntity
  8
SLD-0
  6
Continuous
370
    15
100
AcDbLine
 10
74.2635103265
 20
73.0306903415
 30
0.0
 11
74.389477938
 21
73.2806907601
 31
0.0
  0
LINE
  5
2C3
330
1F
100
AcDbEntity
  8
SLD-0
  6
Continuous
370
    15
100
AcDbLine
 10
74.2635103265
 20
73.0306903415
 30
0.0
 11
73.5274340297
 21
73.0306903415
 31
0.0
  0
LINE
  5
2C4
330
1F
100
AcDbEntity
  8
SLD-0
  6
Continuous
370
    15
100
AcDbLine
 10
73.9924359113
 20
81.4056908728
 30
0.0
 11
74.4963063572
 21
81.4056908728
 31
0.0
  0
LWPOLYLINE
  5
2C5
330
1F
100
AcDbEntity
  8
SLD-0
  6
Continuous
370
    15
100
AcDbPolyline
 90
       20
 70
   128
 43
0.0
 10
74.4963063572
 20
81.4056908728
 10
74.5066738108
 20
81.4073957064
 10
74.516757321
 20
81.4124632745
 10
74.5262835043
 20
81.4207562987
 10
74.5349918837
 20
81.4320483283
 10
74.5426454486
 20
81.4460307801
 10
74.5490341748
 20
81.4623223252
 10
74.5539855842
 20
81.4804782755
 10
74.5573635719
 20
81.5000046632
 10
74.5590754454
 20
81.5203688013
 10
74.5590754454
 20
81.5410133628
 10
74.5573635719
 20
81.5613763276
 10
74.5539855842
 20
81.5809027154
 10
74.5490341748
 20
81.5990586656
 10
74.5426454486
 20
81.6153513841
 10
74.5349918837
 20
81.6293338359
 10
74.5262835043
 20
81.6406246921
 10
74.516757321
 20
81.6489177163
 10
74.5066738108
 20
81.6539852844
 10
74.4963063572
 20
81.6556901181
  0
LINE
  5
2C6
330
1F
100
AcDbEntity
  8
SLD-0
  6
Continuous
370
    15
100
AcDbLine
 10
74.4963063572
 20
81.6556901181
 30
0.0
 11
73.9924359113
 21
81.6556901181
 31
0.0
  0
LWPOLYLINE
  5
2C7
330
1F
100
AcDbEntity
  8
SLD-0
  6
Continuous
370
    15
100
AcDbPolyline
 90
       20
 70
   128
 43
0.0
 10
73.9924359113
 20
81.6556901181
 10
73.9820684577
 20
81.6539852844
 10
73.9719849476
 20
81.6489177163
 10
73.9624587643
 20
81.6406246921
 10
73.9537503849
 20
81.6293338359
 10
73.94609682
 20
81.6153513841
 10
73.9397080938
 20
81.5990586656
 10
73.9347566843
 20
81.5809027154
 10
73.9313786966
 20
81.5613763276
 10
73.9296668231
 20
81.5410133628
 10
73.9296668231
 20
81.5203688013
 10
73.9313786966
 20
81.5000046632
 10
73.9347566843
 20
81.4804782755
 10
73.9397080938
 20
81.4623223252
 10
73.94609682
 20
81.4460307801
 10
73.9537503849
 20
81.4320483283
 10
73.9624587643
 20
81.4207562987
 10
73.9719849476
 20
81.4124632745
 10
73.9820684577
 20
81.4073957064
 10
73.9924359113
 20
81.4056908728
  0
LINE
  5
2C8
330
1F
100
AcDbEntity
  8
SLD-0
  6
Continuous
370
    15
100
AcDbLine
 10
73.9924359113
 20
78.4056905424
 30
0.0
 11
74.4963063572
 21
78.4056905424
 31
0.0
  0
LWPOLYLINE
  5
2C9
330
1F
100
AcDbEntity
  8
SLD-0
  6
Continuous
370
    15
100
AcDbPolyline
 90
       20
 70
   128
 43
0.0
 10
74.4963063572
 20
78.4056905424
 10
74.5066738108
 20
78.407395376
 10
74.516757321
 20
78.4124641174
 10
74.5262835043
 20
78.4207559683
 10
74.5349918837
 20
78.4320479979
 10
74.5426454486
 20
78.4460304497
 10
74.5490341748
 20
78.4623219948
 10
74.5539855842
 20
78.4804791184
 10
74.5573635719
 20
78.5000055062
 10
74.5590754454
 20
78.5203684709
 10
74.5590754454
 20
78.5410130324
 10
74.5573635719
 20
78.5613759972
 10
74.5539855842
 20
78.580902385
 10
74.5490341748
 20
78.5990595085
 10
74.5426454486
 20
78.6153510537
 10
74.5349918837
 20
78.6293335055
 10
74.5262835043
 20
78.6406243617
 10
74.516757321
 20
78.6489173859
 10
74.5066738108
 20
78.6539861274
 10
74.4963063572
 20
78.655690961
  0
LINE
  5
2CA
330
1F
100
AcDbEntity
  8
SLD-0
  6
Continuous
370
    15
100
AcDbLine
 10
74.4963063572
 20
78.655690961
 30
0.0
 11
73.9924359113
 21
78.655690961
 31
0.0
  0
LWPOLYLINE
  5
2CB
330
1F
100
AcDbEntity
  8
SLD-0
  6
Continuous
370
    15
100
AcDbPolyline
 90
       20
 70
   128
 43
0.0
 10
73.9924359113
 20
78.655690961
 10
73.9820684577
 20
78.6539861274
 10
73.9719849476
 20
78.6489173859
 10
73.9624587643
 20
78.6406243617
 10
73.9537503849
 20
78.6293335055
 10
73.94609682
 20
78.6153510537
 10
73.9397080938
 20
78.5990595085
 10
73.9347566843
 20
78.580902385
 10
73.9313786966
 20
78.5613759972
 10
73.9296668231
 20
78.5410130324
 10
73.9296668231
 20
78.5203684709
 10
73.9313786966
 20
78.5000055062
 10
73.9347566843
 20
78.4804791184
 10
73.9397080938
 20
78.4623219948
 10
73.94609682
 20
78.4460304497
 10
73.9537503849
 20
78.4320479979
 10
73.9624587643
 20
78.4207559683
 10
73.9719849476
 20
78.4124641174
 10
73.9820684577
 20
78.407395376
 10
73.9924359113
 20
78.4056905424
  0
LINE
  5
2CC
330
1F
100
AcDbEntity
  8
SLD-0
  6
Continuous
370
    15
100
AcDbLine
 10
75.251454967
 20
89.9056907334
 30
0.0
 11
73.5274340297
 21
89.9056907334
 31
0.0
  0
LWPOLYLINE
  5
2CD
330
1F
100
AcDbEntity
  8
SLD-0
  6
Continuous
370
    15
100
AcDbPolyline
 90
       20
 70
   128
 43
0.0
 10
74.4703935899
 20
81.4056908728
 10
74.4807598702
 20
81.4073957064
 10
74.4908445537
 20
81.4124632745
 10
74.5003707369
 20
81.4207562987
 10
74.5090791163
 20
81.4320483283
 10
74.5167315079
 20
81.4460307801
 10
74.5231214075
 20
81.4623223252
 10
74.5280716436
 20
81.4804782755
 10
74.5314496312
 20
81.5000046632
 10
74.5331615048
 20
81.5203688013
 10
74.5331615048
 20
81.5410133628
 10
74.5314496312
 20
81.5613763276
 10
74.5280716436
 20
81.5809027154
 10
74.5231214075
 20
81.5990586656
 10
74.5167315079
 20
81.6153513841
 10
74.5090791163
 20
81.6293338359
 10
74.5003707369
 20
81.6406246921
 10
74.4908445537
 20
81.6489177163
 10
74.4807598702
 20
81.6539852844
 10
74.4703935899
 20
81.6556901181
  0
LWPOLYLINE
  5
2CE
330
1F
100
AcDbEntity
  8
SLD-0
  6
Continuous
370
    15
100
AcDbPolyline
 90
       20
 70
   128
 43
0.0
 10
72.5067355809
 20
81.4056908728
 10
72.4963693007
 20
81.4073957064
 10
72.4862852038
 20
81.4124632745
 10
72.4767590205
 20
81.4207562987
 10
72.4680500545
 20
81.4320483283
 10
72.4603970762
 20
81.4460307801
 10
72.4540077634
 20
81.4623223252
 10
72.4490569406
 20
81.4804782755
 10
72.4456789529
 20
81.5000046632
 10
72.4439670794
 20
81.5203688013
 10
72.4439670794
 20
81.5410133628
 10
72.4456789529
 20
81.5613763276
 10
72.4490569406
 20
81.5809027154
 10
72.4540077634
 20
81.5990586656
 10
72.4603970762
 20
81.6153513841
 10
72.4680500545
 20
81.6293338359
 10
72.4767590205
 20
81.6406246921
 10
72.4862852038
 20
81.6489177163
 10
72.4963693007
 20
81.6539852844
 10
72.5067355809
 20
81.6556901181
  0
LWPOLYLINE
  5
2CF
330
1F
100
AcDbEntity
  8
SLD-0
  6
Continuous
370
    15
100
AcDbPolyline
 90
       20
 70
   128
 43
0.0
 10
72.5067355809
 20
78.4056905424
 10
72.4963693007
 20
78.407395376
 10
72.4862852038
 20
78.4124641174
 10
72.4767590205
 20
78.4207559683
 10
72.4680500545
 20
78.4320479979
 10
72.4603970762
 20
78.4460304497
 10
72.4540077634
 20
78.4623219948
 10
72.4490569406
 20
78.4804791184
 10
72.4456789529
 20
78.5000055062
 10
72.4439670794
 20
78.5203684709
 10
72.4439670794
 20
78.5410130324
 10
72.4456789529
 20
78.5613759972
 10
72.4490569406
 20
78.580902385
 10
72.4540077634
 20
78.5990595085
 10
72.4603970762
 20
78.6153510537
 10
72.4680500545
 20
78.6293335055
 10
72.4767590205
 20
78.6406243617
 10
72.4862852038
 20
78.6489173859
 10
72.4963693007
 20
78.6539861274
 10
72.5067355809
 20
78.655690961
  0
LWPOLYLINE
  5
2D0
330
1F
100
AcDbEntity
  8
SLD-0
  6
Continuous
370
    15
100
AcDbPolyline
 90
       20
 70
   128
 43
0.0
 10
74.4703935899
 20
78.4056905424
 10
74.4807598702
 20
78.407395376
 10
74.4908445537
 20
78.4124641174
 10
74.5003707369
 20
78.4207559683
 10
74.5090791163
 20
78.4320479979
 10
74.5167315079
 20
78.4460304497
 10
74.5231214075
 20
78.4623219948
 10
74.5280716436
 20
78.4804791184
 10
74.5314496312
 20
78.5000055062
 10
74.5331615048
 20
78.5203684709
 10
74.5331615048
 20
78.5410130324
 10
74.5314496312
 20
78.5613759972
 10
74.5280716436
 20
78.580902385
 10
74.5231214075
 20
78.5990595085
 10
74.5167315079
 20
78.6153510537
 10
74.5090791163
 20
78.6293335055
 10
74.5003707369
 20
78.6406243617
 10
74.4908445537
 20
78.6489173859
 10
74.4807598702
 20
78.6539861274
 10
74.4703935899
 20
78.655690961
  0
LINE
  5
2D1
330
1F
100
AcDbEntity
  8
SLD-0
  6
Continuous
370
    15
100
AcDbLine
 10
71.7256747905
 20
89.9056907334
 30
0.0
 11
71.7127178201
 21
89.9056907334
 31
0.0
  0
LINE
  5
2D2
330
1F
100
AcDbEntity
  8
SLD-0
  6
Continuous
370
    15
100
AcDbLine
 10
71.7127178201
 20
75.405690212
 30
0.0
 11
71.7256747905
 21
75.405690212
 31
0.0
  0
LINE
  5
2D3
330
1F
100
AcDbEntity
  8
SLD-0
  6
Continuous
370
    15
100
AcDbLine
 10
71.7127178201
 20
89.9056907334
 30
0.0
 11
71.7127178201
 21
75.405690212
 31
0.0
  0
LINE
  5
2D4
330
1F
100
AcDbEntity
  8
SLD-0
  6
Continuous
370
    15
100
AcDbLine
 10
75.264410764
 20
89.9056907334
 30
0.0
 11
75.264410764
 21
75.405690212
 31
0.0
  0
LINE
  5
2D5
330
1F
100
AcDbEntity
  8
SLD-0
  6
Continuous
370
    15
100
AcDbLine
 10
75.264410764
 20
75.405690212
 30
0.0
 11
75.251454967
 21
75.405690212
 31
0.0
  0
LINE
  5
2D6
330
1F
100
AcDbEntity
  8
SLD-0
  6
Continuous
370
    15
100
AcDbLine
 10
75.251454967
 20
89.9056907334
 30
0.0
 11
75.264410764
 21
89.9056907334
 31
0.0
  0
LINE
  5
2D7
330
1F
100
AcDbEntity
  8
SLD-0
  6
Continuous
370
    15
100
AcDbLine
 10
71.7127178201
 20
75.405690212
 30
0.0
 11
71.2385646309
 21
75.405690212
 31
0.0
  0
LINE
  5
2D8
330
1F
100
AcDbEntity
  8
SLD-0
  6
Continuous
370
    15
100
AcDbLine
 10
71.2385646309
 20
89.9056907334
 30
0.0
 11
71.2385646309
 21
75.405690212
 31
0.0
  0
LINE
  5
2D9
330
1F
100
AcDbEntity
  8
SLD-0
  6
Continuous
370
    15
100
AcDbLine
 10
71.7127178201
 20
89.9056907334
 30
0.0
 11
71.2385646309
 21
89.9056907334
 31
0.0
  0
LINE
  5
2DA
330
1F
100
AcDbEntity
  8
SLD-0
  6
Continuous
370
    15
100
AcDbLine
 10
75.7385645399
 20
89.9056907334
 30
0.0
 11
75.7385645399
 21
75.405690212
 31
0.0
  0
LINE
  5
2DB
330
1F
100
AcDbEntity
  8
SLD-0
  6
Continuous
370
    15
100
AcDbLine
 10
75.7385645399
 20
75.405690212
 30
0.0
 11
75.264410764
 21
75.405690212
 31
0.0
  0
LINE
  5
2DC
330
1F
100
AcDbEntity
  8
SLD-0
  6
Continuous
370
    15
100
AcDbLine
 10
75.7385645399
 20
89.9056907334
 30
0.0
 11
75.264410764
 21
89.9056907334
 31
0.0
  0
SPLINE
  5
2DD
330
1F
100
AcDbEntity
  8
SLD-0
  6
Continuous
370
    15
100
AcDbSpline
210
0.0
220
0.0
230
1.0
 70
     8
 71
     3
 72
    11
 73
     7
 74
     0
 42
0.00000001
 43
0.00000001
 12
1.0
 22
0.0
 32
0.0
 13
1.0
 23
0.0
 33
0.0
 40
0.0
 40
0.0
 40
0.0
 40
0.0
 40
0.250002481494668
 40
0.499992140799057
 40
0.7500029743960851
 40
1.0
 40
1.0
 40
1.0
 40
1.0
 10
46.88911157122688
 20
90.50128295970879
 30
0.0
 10
46.88213645762107
 20
90.50167873713806
 30
0.0
 10
46.86818658815084
 20
90.50247027169785
 30
0.0
 10
46.85048768810247
 20
90.50297471035698
 30
0.0
 10
46.83790760697511
 20
90.50239473498593
 30
0.0
 10
46.83591939548393
 20
90.5006530847707
 30
0.0
 10
46.83492531719111
 20
90.4997822837114
 30
0.0
  0
LINE
  5
2DE
330
1F
100
AcDbEntity
  8
SLD-0
  6
Continuous
370
    15
100
AcDbLine
 10
46.8891115712
 20
90.5012829597
 30
0.0
 11
43.6685646686
 21
75.2942905388
 31
0.0
  0
SPLINE
  5
2DF
330
1F
100
AcDbEntity
  8
SLD-0
  6
Continuous
370
    15
100
AcDbSpline
210
0.0
220
0.0
230
1.0
 70
     8
 71
     3
 72
    12
 73
     8
 74
     0
 42
0.00000001
 43
0.00000001
 12
1.0
 22
0.0
 32
0.0
 13
1.0
 23
0.0
 33
0.0
 40
0.0
 40
0.0
 40
0.0
 40
0.0
 40
0.2373817887895467
 40
0.4749141615105742
 40
0.7124371786192615
 40
0.9499503113054927
 40
1.0
 40
1.0
 40
1.0
 40
1.0
 10
43.62508613086063
 20
75.34335407873003
 30
0.0
 10
43.625144570027
 20
75.34018723062941
 30
0.0
 10
43.62526148543084
 20
75.3338515255275
 30
0.0
 10
43.63414862652239
 20
75.32250233355367
 30
0.0
 10
43.64783196146012
 20
75.31014233182913
 30
0.0
 10
43.66039974119681
 20
75.30048415383834
 30
0.0
 10
43.66735425114033
 20
75.29520871721331
 30
0.0
 10
43.66856466859285
 20
75.29429053884957
 30
0.0
  0
LINE
  5
2E0
330
1F
100
AcDbEntity
  8
SLD-0
  6
Continuous
370
    15
100
AcDbLine
 10
43.6250861309
 20
75.3433540787
 30
0.0
 11
46.8349253172
 21
90.4997822837
 31
0.0
  0
SPLINE
  5
2E1
330
1F
100
AcDbEntity
  8
SLD-0
  6
Continuous
370
    15
100
AcDbSpline
210
0.0
220
0.0
230
1.0
 70
     8
 71
     3
 72
    11
 73
     7
 74
     0
 42
0.00000001
 43
0.00000001
 12
1.0
 22
0.0
 32
0.0
 13
1.0
 23
0.0
 33
0.0
 40
0.0
 40
0.0
 40
0.0
 40
0.0
 40
0.2499970256039149
 40
0.500007859200943
 40
0.7499975185053321
 40
1.0
 40
1.0
 40
1.0
 40
1.0
 10
79.50220362200453
 20
90.4997822837114
 30
0.0
 10
79.50120954371171
 20
90.5006530847707
 30
0.0
 10
79.49922133222054
 20
90.50239473498593
 30
0.0
 10
79.48664125109316
 20
90.50297471035698
 30
0.0
 10
79.46894235104479
 20
90.50247027169785
 30
0.0
 10
79.45499248157455
 20
90.50167873713806
 30
0.0
 10
79.44801736796876
 20
90.50128295970879
 30
0.0
  0
LINE
  5
2E2
330
1F
100
AcDbEntity
  8
SLD-0
  6
Continuous
370
    15
100
AcDbLine
 10
79.502203622
 20
90.4997822837
 30
0.0
 11
82.7120428083
 21
75.3433540787
 31
0.0
  0
SPLINE
  5
2E3
330
1F
100
AcDbEntity
  8
SLD-0
  6
Continuous
370
    15
100
AcDbSpline
210
0.0
220
0.0
230
1.0
 70
     8
 71
     3
 72
    12
 73
     8
 74
     0
 42
0.00000001
 43
0.00000001
 12
1.0
 22
0.0
 32
0.0
 13
1.0
 23
0.0
 33
0.0
 40
0.0
 40
0.0
 40
0.0
 40
0.0
 40
0.2374030583930883
 40
0.4749254158715969
 40
0.712445396226344
 40
0.9499575737478743
 40
1.0
 40
1.0
 40
1.0
 40
1.0
 10
82.6685642706028
 20
75.29429053884957
 30
0.0
 10
82.67433335493635
 20
75.29866706721309
 30
0.0
 10
82.68587442266677
 20
75.3074223232203
 30
0.0
 10
82.70055527511855
 20
75.31999896417041
 30
0.0
 10
82.71025832794662
 20
75.33151538205902
 30
0.0
 10
82.7127229961629
 20
75.33903584120945
 30
0.0
 10
82.71214363341991
 20
75.34271398102939
 30
0.0
 10
82.71204280833501
 20
75.34335407873003
 30
0.0
  0
LINE
  5
2E4
330
1F
100
AcDbEntity
  8
SLD-0
  6
Continuous
370
    15
100
AcDbLine
 10
82.6685642706
 20
75.2942905388
 30
0.0
 11
79.448017368
 21
90.5012829597
 31
0.0
  0
LINE
  5
2E5
330
1F
100
AcDbEntity
  8
SLD-0
  6
Continuous
370
    15
100
AcDbLine
 10
43.6685646686
 20
73.5412909497
 30
0.0
 11
43.6685646686
 21
73.1662909083
 31
0.0
  0
LINE
  5
2E6
330
1F
100
AcDbEntity
  8
SLD-0
  6
Continuous
370
    15
100
AcDbLine
 10
43.6685646686
 20
73.5412909497
 30
0.0
 11
43.6855930585
 21
73.5412909497
 31
0.0
  0
LINE
  5
2E7
330
1F
100
AcDbEntity
  8
SLD-0
  6
Continuous
370
    15
100
AcDbLine
 10
43.6855930585
 20
73.5412909497
 30
0.0
 11
43.6855930585
 21
74.8542909284
 31
0.0
  0
LINE
  5
2E8
330
1F
100
AcDbEntity
  8
SLD-0
  6
Continuous
370
    15
100
AcDbLine
 10
43.6855930585
 20
74.8542909284
 30
0.0
 11
43.6685646686
 21
74.8542909284
 31
0.0
  0
LINE
  5
2E9
330
1F
100
AcDbEntity
  8
SLD-0
  6
Continuous
370
    15
100
AcDbLine
 10
43.6685646686
 20
75.2942905388
 30
0.0
 11
43.6685646686
 21
74.8542909284
 31
0.0
  0
LINE
  5
2EA
330
1F
100
AcDbEntity
  8
SLD-0
  6
Continuous
370
    15
100
AcDbLine
 10
79.2385645343
 20
91.4902906921
 30
0.0
 11
47.0985644049
 21
91.4902906921
 31
0.0
  0
LINE
  5
2EB
330
1F
100
AcDbEntity
  8
SLD-0
  6
Continuous
370
    15
100
AcDbLine
 10
79.448017368
 20
90.5012829597
 30
0.0
 11
79.2385645343
 21
91.4902906921
 31
0.0
  0
LINE
  5
2EC
330
1F
100
AcDbEntity
  8
SLD-0
  6
Continuous
370
    15
100
AcDbLine
 10
82.6685642706
 20
74.8542909284
 30
0.0
 11
82.6685642706
 21
75.2942905388
 31
0.0
  0
LINE
  5
2ED
330
1F
100
AcDbEntity
  8
SLD-0
  6
Continuous
370
    15
100
AcDbLine
 10
82.6685642706
 20
74.8542909284
 30
0.0
 11
82.6515358806
 21
74.8542909284
 31
0.0
  0
LINE
  5
2EE
330
1F
100
AcDbEntity
  8
SLD-0
  6
Continuous
370
    15
100
AcDbLine
 10
82.6515358806
 20
74.8542909284
 30
0.0
 11
82.6515358806
 21
73.5412909497
 31
0.0
  0
LINE
  5
2EF
330
1F
100
AcDbEntity
  8
SLD-0
  6
Continuous
370
    15
100
AcDbLine
 10
82.6515358806
 20
73.5412909497
 30
0.0
 11
82.6685642706
 21
73.5412909497
 31
0.0
  0
LINE
  5
2F0
330
1F
100
AcDbEntity
  8
SLD-0
  6
Continuous
370
    15
100
AcDbLine
 10
82.6685642706
 20
73.1662909083
 30
0.0
 11
82.6685642706
 21
73.5412909497
 31
0.0
  0
LINE
  5
2F1
330
1F
100
AcDbEntity
  8
SLD-0
  6
Continuous
370
    15
100
AcDbLine
 10
82.6685642706
 20
73.055290164
 30
0.0
 11
82.6685642706
 21
73.1662909083
 31
0.0
  0
LINE
  5
2F2
330
1F
100
AcDbEntity
  8
SLD-0
  6
Continuous
370
    15
100
AcDbLine
 10
43.6685646686
 20
73.1662909083
 30
0.0
 11
43.6685646686
 21
73.055290164
 31
0.0
  0
LINE
  5
2F3
330
1F
100
AcDbEntity
  8
SLD-0
  6
Continuous
370
    15
100
AcDbLine
 10
47.0985644049
 20
91.4902906921
 30
0.0
 11
46.8891115712
 21
90.5012829597
 31
0.0
  0
LINE
  5
2F4
330
1F
100
AcDbEntity
  8
SLD-0
  6
Continuous
370
    15
100
AcDbLine
 10
43.6158650107
 20
74.8542909284
 30
0.0
 11
43.6685646686
 21
74.8542909284
 31
0.0
  0
LINE
  5
2F5
330
1F
100
AcDbEntity
  8
SLD-0
  6
Continuous
370
    15
100
AcDbLine
 10
43.6158650107
 20
75.234347978
 30
0.0
 11
43.6158650107
 21
74.8542909284
 31
0.0
  0
SPLINE
  5
2F6
330
1F
100
AcDbEntity
  8
SLD-0
  6
Continuous
370
    15
100
AcDbSpline
210
0.0
220
0.0
230
1.0
 70
     8
 71
     3
 72
    11
 73
     7
 74
     0
 42
0.00000001
 43
0.00000001
 12
1.0
 22
0.0
 32
0.0
 13
1.0
 23
0.0
 33
0.0
 40
0.0
 40
0.0
 40
0.0
 40
0.0
 40
0.2499965137247847
 40
0.4999990912929719
 40
0.750001668861159
 40
0.9999999999999999
 40
0.9999999999999999
 40
0.9999999999999999
 40
0.9999999999999999
 10
43.66856466859285
 20
75.29429053884957
 30
0.0
 10
43.6616592185695
 20
75.2892952945056
 30
0.0
 10
43.64784815102621
 20
75.27930468465448
 30
0.0
 10
43.63042753748133
 20
75.26431926619556
 30
0.0
 10
43.61824182165766
 20
75.24933376473278
 30
0.0
 10
43.61665727654488
 20
75.23934321194673
 30
0.0
 10
43.61586501071713
 20
75.2343479779778
 30
0.0
  0
LINE
  5
2F7
330
1F
100
AcDbEntity
  8
SLD-0
  6
Continuous
370
    15
100
AcDbLine
 10
47.111259725
 20
91.5429906891
 30
0.0
 11
79.2258692142
 21
91.5429906891
 31
0.0
  0
SPLINE
  5
2F8
330
1F
100
AcDbEntity
  8
SLD-0
  6
Continuous
370
    15
100
AcDbSpline
210
0.0
220
0.0
230
1.0
 70
     8
 71
     3
 72
    11
 73
     7
 74
     0
 42
0.00000001
 43
0.00000001
 12
1.0
 22
0.0
 32
0.0
 13
1.0
 23
0.0
 33
0.0
 40
0.0
 40
0.0
 40
0.0
 40
0.0
 40
0.2499967515600044
 40
0.5000031028885058
 40
0.7500013012120206
 40
1.0
 40
1.0
 40
1.0
 40
1.0
 10
47.11125972495245
 20
91.54299068914554
 30
0.0
 10
47.11020176823522
 20
91.54219846670686
 30
0.0
 10
47.10808581417568
 20
91.54061399140853
 30
0.0
 10
47.10491213818079
 20
91.52842767071441
 30
0.0
 10
47.1017382215566
 20
91.51100759431621
 30
0.0
 10
47.09962234452028
 20
91.49719633078485
 30
0.0
 10
47.0985644049432
 20
91.49029069210707
 30
0.0
  0
SPLINE
  5
2F9
330
1F
100
AcDbEntity
  8
SLD-0
  6
Continuous
370
    15
100
AcDbSpline
210
0.0
220
0.0
230
1.0
 70
     8
 71
     3
 72
    11
 73
     7
 74
     0
 42
0.00000001
 43
0.00000001
 12
1.0
 22
0.0
 32
0.0
 13
1.0
 23
0.0
 33
0.0
 40
0.0
 40
0.0
 40
0.0
 40
0.0
 40
0.2499986987879794
 40
0.4999968971114942
 40
0.7500032484399956
 40
0.9999999999999999
 40
0.9999999999999999
 40
0.9999999999999999
 40
0.9999999999999999
 10
79.23856453425245
 20
91.49029069210707
 30
0.0
 10
79.23750659467534
 20
91.49719633078485
 30
0.0
 10
79.23539071763904
 20
91.51100759431621
 30
0.0
 10
79.23221680101484
 20
91.52842767071441
 30
0.0
 10
79.22904312501994
 20
91.54061399140853
 30
0.0
 10
79.22692717096042
 20
91.54219846670686
 30
0.0
 10
79.22586921424319
 20
91.54299068914554
 30
0.0
  0
LINE
  5
2FA
330
1F
100
AcDbEntity
  8
SLD-0
  6
Continuous
370
    15
100
AcDbLine
 10
82.7212639285
 20
74.8542909284
 30
0.0
 11
82.7212639285
 21
75.234347978
 31
0.0
  0
LINE
  5
2FB
330
1F
100
AcDbEntity
  8
SLD-0
  6
Continuous
370
    15
100
AcDbLine
 10
82.6685642706
 20
74.8542909284
 30
0.0
 11
82.7212639285
 21
74.8542909284
 31
0.0
  0
SPLINE
  5
2FC
330
1F
100
AcDbEntity
  8
SLD-0
  6
Continuous
370
    15
100
AcDbSpline
210
0.0
220
0.0
230
1.0
 70
     8
 71
     3
 72
    11
 73
     7
 74
     0
 42
0.00000001
 43
0.00000001
 12
1.0
 22
0.0
 32
0.0
 13
1.0
 23
0.0
 33
0.0
 40
0.0
 40
0.0
 40
0.0
 40
0.0
 40
0.2499953262579589
 40
0.5000018924662047
 40
0.7499955358114406
 40
1.0
 40
1.0
 40
1.0
 40
1.0
 10
82.72126392847852
 20
75.2343479779778
 30
0.0
 10
82.72047227024288
 20
75.23934327384146
 30
0.0
 10
82.71888891817815
 20
75.24933409016047
 30
0.0
 10
82.70670097378527
 20
75.26431868442552
 30
0.0
 10
82.6892819789169
 20
75.27930535594454
 30
0.0
 10
82.67547027301073
 20
75.28929540581377
 30
0.0
 10
82.6685642706028
 20
75.29429053884957
 30
0.0
  0
LINE
  5
2FD
330
1F
100
AcDbEntity
  8
SLD-0
  6
Continuous
370
    15
100
AcDbLine
 10
43.6158650107
 20
73.5412909497
 30
0.0
 11
43.6158650107
 21
73.1662909083
 31
0.0
  0
LINE
  5
2FE
330
1F
100
AcDbEntity
  8
SLD-0
  6
Continuous
370
    15
100
AcDbLine
 10
43.6685646686
 20
73.5412909497
 30
0.0
 11
43.6158650107
 21
73.5412909497
 31
0.0
  0
LINE
  5
2FF
330
1F
100
AcDbEntity
  8
SLD-0
  6
Continuous
370
    15
100
AcDbLine
 10
43.6158650107
 20
73.1662909083
 30
0.0
 11
43.6685646686
 21
73.1662909083
 31
0.0
  0
LINE
  5
300
330
1F
100
AcDbEntity
  8
SLD-0
  6
Continuous
370
    15
100
AcDbLine
 10
82.7212639285
 20
73.5412909497
 30
0.0
 11
82.6685642706
 21
73.5412909497
 31
0.0
  0
LINE
  5
301
330
1F
100
AcDbEntity
  8
SLD-0
  6
Continuous
370
    15
100
AcDbLine
 10
82.7212639285
 20
73.1662909083
 30
0.0
 11
82.7212639285
 21
73.5412909497
 31
0.0
  0
LINE
  5
302
330
1F
100
AcDbEntity
  8
SLD-0
  6
Continuous
370
    15
100
AcDbLine
 10
82.6685642706
 20
73.1662909083
 30
0.0
 11
82.7212639285
 21
73.1662909083
 31
0.0
  0
LINE
  5
303
330
1F
100
AcDbEntity
  8
SLD-0
  6
Continuous
370
    15
100
AcDbLine
 10
82.7212639285
 20
73.5412909497
 30
0.0
 11
82.7212639285
 21
74.8542909284
 31
0.0
  0
LINE
  5
304
330
1F
100
AcDbEntity
  8
SLD-0
  6
Continuous
370
    15
100
AcDbLine
 10
82.6995645525
 20
73.5412909497
 30
0.0
 11
82.6995645525
 21
74.8542909284
 31
0.0
  0
LINE
  5
305
330
1F
100
AcDbEntity
  8
SLD-0
  6
Continuous
370
    15
100
AcDbLine
 10
43.6375643867
 20
74.8542909284
 30
0.0
 11
43.6375643867
 21
73.5412909497
 31
0.0
  0
LINE
  5
306
330
1F
100
AcDbEntity
  8
SLD-0
  6
Continuous
370
    15
100
AcDbLine
 10
43.6158650107
 20
74.8542909284
 30
0.0
 11
43.6158650107
 21
73.5412909497
 31
0.0
  0
LINE
  5
307
330
1F
100
AcDbEntity
  8
SLD-0
  6
Continuous
370
    15
100
AcDbLine
 10
79.2410437589
 20
91.4785833257
 30
0.0
 11
79.2455809865
 21
91.4795476387
 31
0.0
  0
LINE
  5
308
330
1F
100
AcDbEntity
  8
SLD-0
  6
Continuous
370
    15
100
AcDbLine
 10
47.0960887002
 20
91.4786015671
 30
0.0
 11
47.0917004842
 21
91.4795329355
 31
0.0
  0
DIMENSION
  5
309
330
1F
100
AcDbEntity
  8
DIM
100
AcDbDimension
  2
_D_4
 10
42.6662211754
 20
66.1812504557
 30
0.0
 11
37.592226267
 21
66.1812504557
 31
0.0
 70
   160
  1
<>
 71
     2
 42
-1.0
  3
SLDDIMSTYLE1
100
AcDbAlignedDimension
 13
43.5928361825
 23
72.3698906906
 33
0.0
 14
42.6662211754
 24
73.0886656906
 34
0.0
100
AcDbRotatedDimension
  0
DIMENSION
  5
318
330
1F
100
AcDbEntity
  8
DIM
100
AcDbDimension
  2
_D_5
 10
82.7478361825
 20
66.1812504557
 30
0.0
 11
63.2377784107
 21
66.1812504557
 31
0.0
 70
   160
  1
<>
 71
     2
 42
-1.0
  3
SLDDIMSTYLE0
100
AcDbAlignedDimension
 13
43.5928361825
 23
72.3698906906
 33
0.0
 14
82.7478361825
 24
72.3698906906
 34
0.0
100
AcDbRotatedDimension
  0
DIMENSION
  5
327
330
1F
100
AcDbEntity
  8
DIM
100
AcDbDimension
  2
_D_6
 10
79.2385645054
 20
95.7165797872
 30
0.0
 11
62.4705906361
 21
95.7165797872
 31
0.0
 70
   160
  1
<>
 71
     2
 42
-1.0
  3
SLDDIMSTYLE0
100
AcDbAlignedDimension
 13
47.0985645054
 23
91.4902906906
 33
0.0
 14
79.2385645054
 24
91.4902906906
 34
0.0
100
AcDbRotatedDimension
  0
DIMENSION
  5
336
330
1F
100
AcDbEntity
  8
DIM
100
AcDbDimension
  2
_D_7
 10
39.1679928525
 20
91.5429906906
 30
0.0
 11
39.1679928525
 21
83.7818222703
 31
0.0
 70
   160
  1
<>
 71
     2
 42
-1.0
  3
SLDDIMSTYLE0
100
AcDbAlignedDimension
 13
43.6575488808
 23
72.3052906906
 33
0.0
 14
47.1112593087
 24
91.5429906906
 34
0.0
 50
90.0
100
AcDbRotatedDimension
  0
LINE
  5
345
330
1F
100
AcDbEntity
  8
SLD-0
  6
Continuous
370
    15
100
AcDbLine
 10
117.5835133692
 20
48.3260440772
 30
0.0
 11
100.7085129773
 21
48.3260440772
 31
0.0
  0
LINE
  5
346
330
1F
100
AcDbEntity
  8
SLD-0
  6
Continuous
370
    15
100
AcDbLine
 10
100.2951136996
 20
39.8585120282
 30
0.0
 11
100.7331127998
 21
39.8585120282
 31
0.0
  0
LINE
  5
347
330
1F
100
AcDbEntity
  8
SLD-0
  6
Continuous
370
    15
100
AcDbLine
 10
100.2951136996
 20
35.9835131658
 30
0.0
 11
100.2951136996
 21
39.8585120282
 31
0.0
  0
LINE
  5
348
330
1F
100
AcDbEntity
  8
SLD-0
  6
Continuous
370
    15
100
AcDbLine
 10
100.7331127998
 20
35.9835131658
 30
0.0
 11
100.2951136996
 21
35.9835131658
 31
0.0
  0
LINE
  5
349
330
1F
100
AcDbEntity
  8
SLD-0
  6
Continuous
370
    15
100
AcDbLine
 10
100.7331127998
 20
19.9945126454
 30
0.0
 11
100.7331127998
 21
35.9835131658
 31
0.0
  0
LINE
  5
34A
330
1F
100
AcDbEntity
  8
SLD-0
  6
Continuous
370
    15
100
AcDbLine
 10
100.2951136996
 20
19.9945126454
 30
0.0
 11
100.7331127998
 21
19.9945126454
 31
0.0
  0
LINE
  5
34B
330
1F
100
AcDbEntity
  8
SLD-0
  6
Continuous
370
    15
100
AcDbLine
 10
100.2951136996
 20
16.1195129031
 30
0.0
 11
100.2951136996
 21
19.9945126454
 31
0.0
  0
LINE
  5
34C
330
1F
100
AcDbEntity
  8
SLD-0
  6
Continuous
370
    15
100
AcDbLine
 10
100.7331127998
 20
16.1195129031
 30
0.0
 11
100.2951136996
 21
16.1195129031
 31
0.0
  0
LINE
  5
34D
330
1F
100
AcDbEntity
  8
SLD-0
  6
Continuous
370
    15
100
AcDbLine
 10
100.7331127998
 20
11.897949936
 30
0.0
 11
100.7331127998
 21
16.1195129031
 31
0.0
  0
LINE
  5
34E
330
1F
100
AcDbEntity
  8
SLD-0
  6
Continuous
370
    15
100
AcDbLine
 10
100.7331127998
 20
11.897949936
 30
0.0
 11
100.0477133576
 21
11.2125499254
 31
0.0
  0
LINE
  5
34F
330
1F
100
AcDbEntity
  8
SLD-0
  6
Continuous
370
    15
100
AcDbLine
 10
100.0477133576
 20
11.2125499254
 30
0.0
 11
100.0477133576
 21
44.845674896
 31
0.0
  0
LINE
  5
350
330
1F
100
AcDbEntity
  8
SLD-0
  6
Continuous
370
    15
100
AcDbLine
 10
100.0477133576
 20
44.845674896
 30
0.0
 11
100.7331127998
 21
44.1602754538
 31
0.0
  0
LINE
  5
351
330
1F
100
AcDbEntity
  8
SLD-0
  6
Continuous
370
    15
100
AcDbLine
 10
100.7331127998
 20
39.8585120282
 30
0.0
 11
100.7331127998
 21
44.1602754538
 31
0.0
  0
SPLINE
  5
352
330
1F
100
AcDbEntity
  8
SLD-0
  6
Continuous
370
    15
100
AcDbSpline
210
0.0
220
0.0
230
1.0
 70
     8
 71
     3
 72
    11
 73
     7
 74
     0
 42
0.00000001
 43
0.00000001
 12
1.0
 22
0.0
 32
0.0
 13
1.0
 23
0.0
 33
0.0
 40
0.0
 40
0.0
 40
0.0
 40
0.0
 40
0.2499883220614905
 40
0.4999901605487498
 40
0.749980266818667
 40
1.0
 40
1.0
 40
1.0
 40
1.0
 10
100.0167130756959
 20
44.91178677230284
 30
0.0
 10
100.0171789200344
 20
44.90627754889574
 30
0.0
 10
100.0181106338987
 20
44.89525880420762
 30
0.0
 10
100.0252805475947
 20
44.8787325237561
 30
0.0
 10
100.0355271409341
 20
44.86220400471399
 30
0.0
 10
100.0436511249075
 20
44.85118481656531
 30
0.0
 10
100.047713357578
 20
44.84567489603288
 30
0.0
  0
SPLINE
  5
353
330
1F
100
AcDbEntity
  8
SLD-0
  6
Continuous
370
    15
100
AcDbSpline
210
0.0
220
0.0
230
1.0
 70
     8
 71
     3
 72
    11
 73
     7
 74
     0
 42
0.00000001
 43
0.00000001
 12
1.0
 22
0.0
 32
0.0
 13
1.0
 23
0.0
 33
0.0
 40
0.0
 40
0.0
 40
0.0
 40
0.0
 40
0.2499938121199703
 40
0.4999884118592637
 40
0.7499875328794635
 40
1.0
 40
1.0
 40
1.0
 40
1.0
 10
99.98311389050325
 20
44.91178677230285
 30
0.0
 10
99.9840850603847
 20
44.90627765601637
 30
0.0
 10
99.98602740320733
 20
44.89525940608665
 30
0.0
 10
100.0009642945087
 20
44.87873172158714
 30
0.0
 10
100.0223186117992
 20
44.86220474360828
 30
0.0
 10
100.0392482916918
 20
44.85118494326997
 30
0.0
 10
100.047713357578
 20
44.84567489603288
 30
0.0
  0
LINE
  5
354
330
1F
100
AcDbEntity
  8
SLD-0
  6
Continuous
370
    15
100
AcDbLine
 10
100.0167130757
 20
44.9117867723
 30
0.0
 11
99.9831138905
 21
44.9117867723
 31
0.0
  0
SPLINE
  5
355
330
1F
100
AcDbEntity
  8
SLD-0
  6
Continuous
370
    15
100
AcDbSpline
210
0.0
220
0.0
230
1.0
 70
     8
 71
     3
 72
    11
 73
     7
 74
     0
 42
0.00000001
 43
0.00000001
 12
1.0
 22
0.0
 32
0.0
 13
1.0
 23
0.0
 33
0.0
 40
0.0
 40
0.0
 40
0.0
 40
0.0
 40
0.250004545686835
 40
0.5000062515687442
 40
0.7500036029740548
 40
1.0
 40
1.0
 40
1.0
 40
1.0
 10
100.047713357578
 20
11.21254992542923
 30
0.0
 10
100.0392482129767
 20
11.20704062054758
 30
0.0
 10
100.0223180199296
 20
11.19602207336456
 30
0.0
 10
100.0009643652143
 20
11.17949427330312
 30
0.0
 10
99.98602738817308
 20
11.1629661725195
 30
0.0
 10
99.98408505515737
 20
11.15194756326694
 30
0.0
 10
99.98311389050325
 20
11.14643826915673
 30
0.0
  0
LINE
  5
356
330
1F
100
AcDbEntity
  8
SLD-0
  6
Continuous
370
    15
100
AcDbLine
 10
99.9831138905
 20
44.9117867723
 30
0.0
 11
99.9831138905
 21
11.1464382692
 31
0.0
  0
SPLINE
  5
357
330
1F
100
AcDbEntity
  8
SLD-0
  6
Continuous
370
    15
100
AcDbSpline
210
0.0
220
0.0
230
1.0
 70
     8
 71
     3
 72
    11
 73
     7
 74
     0
 42
0.00000001
 43
0.00000001
 12
1.0
 22
0.0
 32
0.0
 13
1.0
 23
0.0
 33
0.0
 40
0.0
 40
0.0
 40
0.0
 40
0.0
 40
0.2500025771638289
 40
0.4999982817772111
 40
0.750006079562823
 40
1.0
 40
1.0
 40
1.0
 40
1.0
 10
100.047713357578
 20
11.21254992542923
 30
0.0
 10
100.0436510431052
 20
11.20704067532894
 30
0.0
 10
100.0355265258321
 20
11.19602232657721
 30
0.0
 10
100.0252806210975
 20
11.17949352009462
 30
0.0
 10
100.0181106182663
 20
11.16296676857916
 30
0.0
 10
100.0171789145997
 20
11.15194766702061
 30
0.0
 10
100.0167130756959
 20
11.14643826915673
 30
0.0
  0
LINE
  5
358
330
1F
100
AcDbEntity
  8
SLD-0
  6
Continuous
370
    15
100
AcDbLine
 10
100.0167130757
 20
11.1464382692
 30
0.0
 11
99.9831138905
 21
11.1464382692
 31
0.0
  0
LINE
  5
359
330
1F
100
AcDbEntity
  8
SLD-0
  6
Continuous
370
    15
100
AcDbLine
 10
100.0167130757
 20
44.911899411
 30
0.0
 11
99.9831138905
 21
44.911899411
 31
0.0
  0
LINE
  5
35A
330
1F
100
AcDbEntity
  8
SLD-0
  6
Continuous
370
    15
100
AcDbLine
 10
100.0167130757
 20
44.9117867723
 30
0.0
 11
100.0167130757
 21
44.911899411
 31
0.0
  0
LINE
  5
35B
330
1F
100
AcDbEntity
  8
SLD-0
  6
Continuous
370
    15
100
AcDbLine
 10
99.9831138905
 20
44.9117867723
 30
0.0
 11
99.9831138905
 21
44.911899411
 31
0.0
  0
LINE
  5
35C
330
1F
100
AcDbEntity
  8
SLD-0
  6
Continuous
370
    15
100
AcDbLine
 10
100.0167130757
 20
11.1463255571
 30
0.0
 11
100.0167130757
 21
11.1464382692
 31
0.0
  0
LINE
  5
35D
330
1F
100
AcDbEntity
  8
SLD-0
  6
Continuous
370
    15
100
AcDbLine
 10
100.0167130757
 20
11.1463255571
 30
0.0
 11
99.9831138905
 21
11.1463255571
 31
0.0
  0
LINE
  5
35E
330
1F
100
AcDbEntity
  8
SLD-0
  6
Continuous
370
    15
100
AcDbLine
 10
99.9831138905
 20
11.1463255571
 30
0.0
 11
99.9831138905
 21
11.1464382692
 31
0.0
  0
ARC
  5
35F
330
1F
100
AcDbEntity
  8
SLD-0
  6
Continuous
370
    15
100
AcDbCircle
 10
100.0477133264
 20
10.7087128568
 30
0.0
 40
0.0310000000000059
100
AcDbArc
 50
180.0
 51
270.0
  0
LINE
  5
360
330
1F
100
AcDbEntity
  8
SLD-0
  6
Continuous
370
    15
100
AcDbLine
 10
100.0477133576
 20
10.6777128206
 30
0.0
 11
100.0477133576
 21
10.6441128287
 31
0.0
  0
ARC
  5
361
330
1F
100
AcDbEntity
  8
SLD-0
  6
Continuous
370
    15
100
AcDbCircle
 10
100.0477133264
 20
10.7087128568
 30
0.0
 40
0.0646000000000022
100
AcDbArc
 50
180.0
 51
270.0
  0
LINE
  5
362
330
1F
100
AcDbEntity
  8
SLD-0
  6
Continuous
370
    15
100
AcDbLine
 10
100.0167130757
 20
10.7087128825
 30
0.0
 11
99.9831138905
 21
10.7087128825
 31
0.0
  0
LINE
  5
363
330
1F
100
AcDbEntity
  8
SLD-0
  6
Continuous
370
    15
100
AcDbLine
 10
100.0167130757
 20
11.1463255571
 30
0.0
 11
100.0167130757
 21
10.7087128825
 31
0.0
  0
LINE
  5
364
330
1F
100
AcDbEntity
  8
SLD-0
  6
Continuous
370
    15
100
AcDbLine
 10
99.9831138905
 20
10.7087128825
 30
0.0
 11
99.9831138905
 21
11.1463255571
 31
0.0
  0
LINE
  5
365
330
1F
100
AcDbEntity
  8
SLD-0
  6
Continuous
370
    15
100
AcDbLine
 10
100.7331127998
 20
10.6777128206
 30
0.0
 11
100.0477133576
 21
10.6777128206
 31
0.0
  0
LINE
  5
366
330
1F
100
AcDbEntity
  8
SLD-0
  6
Continuous
370
    15
100
AcDbLine
 10
100.7331127998
 20
10.6777128206
 30
0.0
 11
100.7331127998
 21
10.6441128287
 31
0.0
  0
LINE
  5
367
330
1F
100
AcDbEntity
  8
SLD-0
  6
Continuous
370
    15
100
AcDbLine
 10
100.7331127998
 20
10.6441128287
 30
0.0
 11
100.0477133576
 21
10.6441128287
 31
0.0
  0
LINE
  5
368
330
1F
100
AcDbEntity
  8
SLD-0
  6
Continuous
370
    15
100
AcDbLine
 10
100.0477133576
 20
45.3805139442
 30
0.0
 11
100.0477133576
 21
45.4141131294
 31
0.0
  0
LINE
  5
369
330
1F
100
AcDbEntity
  8
SLD-0
  6
Continuous
370
    15
100
AcDbLine
 10
100.7331127998
 20
45.4141131294
 30
0.0
 11
100.0477133576
 21
45.4141131294
 31
0.0
  0
LINE
  5
36A
330
1F
100
AcDbEntity
  8
SLD-0
  6
Continuous
370
    15
100
AcDbLine
 10
100.7331127998
 20
45.3805139442
 30
0.0
 11
100.7331127998
 21
45.4141131294
 31
0.0
  0
LINE
  5
36B
330
1F
100
AcDbEntity
  8
SLD-0
  6
Continuous
370
    15
100
AcDbLine
 10
100.7331127998
 20
45.3805139442
 30
0.0
 11
100.0477133576
 21
45.3805139442
 31
0.0
  0
ARC
  5
36C
330
1F
100
AcDbEntity
  8
SLD-0
  6
Continuous
370
    15
100
AcDbCircle
 10
100.0477133264
 20
45.3495128568
 30
0.0
 40
0.0310000000000059
100
AcDbArc
 50
90.0
 51
180.0
  0
LINE
  5
36D
330
1F
100
AcDbEntity
  8
SLD-0
  6
Continuous
370
    15
100
AcDbLine
 10
100.0167130757
 20
45.349512489
 30
0.0
 11
99.9831138905
 21
45.349512489
 31
0.0
  0
ARC
  5
36E
330
1F
100
AcDbEntity
  8
SLD-0
  6
Continuous
370
    15
100
AcDbCircle
 10
100.0477133264
 20
45.3495128568
 30
0.0
 40
0.0646000000000129
100
AcDbArc
 50
90.0
 51
180.0
  0
LINE
  5
36F
330
1F
100
AcDbEntity
  8
SLD-0
  6
Continuous
370
    15
100
AcDbLine
 10
100.0167130757
 20
45.349512489
 30
0.0
 11
100.0167130757
 21
44.911899411
 31
0.0
  0
LINE
  5
370
330
1F
100
AcDbEntity
  8
SLD-0
  6
Continuous
370
    15
100
AcDbLine
 10
99.9831138905
 20
44.911899411
 30
0.0
 11
99.9831138905
 21
45.349512489
 31
0.0
  0
LWPOLYLINE
  5
371
330
1F
100
AcDbEntity
  8
SLD-0
  6
Continuous
370
    15
100
AcDbPolyline
 90
        9
 70
   128
 43
0.0
 10
99.4854315331
 20
40.9351901503
 10
99.4860416594
 20
40.934580024
 10
99.4878485719
 20
40.9327731115
 10
99.4907842179
 20
40.9298398121
 10
99.4947312657
 20
40.9258927644
 10
99.4995418768
 20
40.9210798066
 10
99.5050306667
 20
40.9155910167
 10
99.5109887845
 20
40.9096352455
 10
99.5171815663
 20
40.9034424637
  0
LINE
  5
372
330
1F
100
AcDbEntity
  8
SLD-0
  6
Continuous
370
    15
100
AcDbLine
 10
99.5171815663
 20
40.9034424637
 30
0.0
 11
97.433520517
 21
38.8197814143
 31
0.0
  0
SPLINE
  5
373
330
1F
100
AcDbEntity
  8
SLD-0
  6
Continuous
370
    15
100
AcDbSpline
210
0.0
220
0.0
230
1.0
 70
     8
 71
     3
 72
    11
 73
     7
 74
     0
 42
0.00000001
 43
0.00000001
 12
1.0
 22
0.0
 32
0.0
 13
1.0
 23
0.0
 33
0.0
 40
0.0
 40
0.0
 40
0.0
 40
0.0
 40
0.2582652043578707
 40
0.5167242912644537
 40
0.7752060992888176
 40
1.0
 40
1.0
 40
1.0
 40
1.0
 10
97.4335205169568
 20
38.81978141433525
 30
0.0
 10
97.4263570299516
 20
38.82121466966656
 30
0.0
 10
97.41202467823221
 20
38.82408225628981
 30
0.0
 10
97.39270679750226
 20
38.82620970440664
 30
0.0
 10
97.37756573795218
 20
38.82488689461572
 30
0.0
 10
97.37138122471798
 20
38.82036601083718
 30
0.0
 10
97.36850452136046
 20
38.81826313854117
 30
0.0
  0
LINE
  5
374
330
1F
100
AcDbEntity
  8
SLD-0
  6
Continuous
370
    15
100
AcDbLine
 10
99.4854315331
 20
40.9351901503
 30
0.0
 11
97.3685045214
 21
38.8182631385
 31
0.0
  0
SPLINE
  5
375
330
1F
100
AcDbEntity
  8
SLD-0
  6
Continuous
370
    15
100
AcDbSpline
210
0.0
220
0.0
230
1.0
 70
     8
 71
     3
 72
     9
 73
     5
 74
     0
 42
0.00000001
 43
0.00000001
 12
1.0
 22
0.0
 32
0.0
 13
1.0
 23
0.0
 33
0.0
 40
0.0
 40
0.0
 40
0.0
 40
0.0
 40
0.4999987303099647
 40
1.0
 40
1.0
 40
1.0
 40
1.0
 10
97.4335205169568
 20
38.81978141433525
 30
0.0
 10
97.42511015335575
 20
38.81710310973209
 30
0.0
 10
97.4082893834393
 20
38.81174648692327
 30
0.0
 10
97.39586163418524
 20
38.80199701240188
 30
0.0
 10
97.38964774377882
 20
38.79712226276237
 30
0.0
  0
LINE
  5
376
330
1F
100
AcDbEntity
  8
SLD-0
  6
Continuous
370
    15
100
AcDbLine
 10
97.3896477438
 20
38.7971222628
 30
0.0
 11
97.3685045214
 21
38.8182631385
 31
0.0
  0
LINE
  5
377
330
1F
100
AcDbEntity
  8
SLD-0
  6
Continuous
370
    15
100
AcDbLine
 10
99.9831138905
 20
40.9034424637
 30
0.0
 11
99.5171815663
 21
40.9034424637
 31
0.0
  0
LINE
  5
378
330
1F
100
AcDbEntity
  8
SLD-0
  6
Continuous
370
    15
100
AcDbLine
 10
99.9831138905
 20
38.8197814143
 30
0.0
 11
97.433520517
 21
38.8197814143
 31
0.0
  0
SPLINE
  5
379
330
1F
100
AcDbEntity
  8
SLD-0
  6
Continuous
370
    15
100
AcDbSpline
210
0.0
220
0.0
230
1.0
 70
     8
 71
     3
 72
     9
 73
     5
 74
     0
 42
0.00000001
 43
0.00000001
 12
1.0
 22
0.0
 32
0.0
 13
1.0
 23
0.0
 33
0.0
 40
0.0
 40
0.0
 40
0.0
 40
0.0
 40
0.4999913698271611
 40
1.0
 40
1.0
 40
1.0
 40
1.0
 10
97.38964774377882
 20
38.79712226276238
 30
0.0
 10
97.38941582957827
 20
38.79596165795411
 30
0.0
 10
97.38895199317118
 20
38.793640408272
 30
0.0
 10
97.39127122324331
 20
38.79410466782419
 30
0.0
 10
97.3924308582947
 20
38.79433680160692
 30
0.0
  0
LINE
  5
37A
330
1F
100
AcDbEntity
  8
SLD-0
  6
Continuous
370
    15
100
AcDbLine
 10
97.3924308583
 20
38.7943368016
 30
0.0
 11
97.4135740807
 21
38.7731959258
 31
0.0
  0
SPLINE
  5
37B
330
1F
100
AcDbEntity
  8
SLD-0
  6
Continuous
370
    15
100
AcDbSpline
210
0.0
220
0.0
230
1.0
 70
     8
 71
     3
 72
    15
 73
    11
 74
     0
 42
0.00000001
 43
0.00000001
 12
1.0
 22
0.0
 32
0.0
 13
1.0
 23
0.0
 33
0.0
 40
0.0
 40
0.0
 40
0.0
 40
0.0
 40
0.1249785588353914
 40
0.2499970955922163
 40
0.3750025356457288
 40
0.4999810944811202
 40
0.6249900098074922
 40
0.7499905471724095
 40
0.8749959872259221
 40
1.0
 40
1.0
 40
1.0
 40
1.0
 10
97.36850452136046
 20
38.81826313854118
 30
0.0
 10
97.36589480706176
 20
38.81497573782402
 30
0.0
 10
97.36067454367353
 20
38.80839988482176
 30
0.0
 10
97.35838377414278
 20
38.79568648980788
 30
0.0
 10
97.36082153784449
 20
38.78322692395221
 30
0.0
 10
97.36791833846634
 20
38.77260841851967
 30
0.0
 10
97.37853650970752
 20
38.76551085707702
 30
0.0
 10
97.39099773204163
 20
38.76307280617861
 30
0.0
 10
97.40370919340322
 20
38.76536391922809
 30
0.0
 10
97.41028579745817
 20
38.77058526689751
 30
0.0
 10
97.41357408071306
 20
38.77319592582813
 30
0.0
  0
LINE
  5
37C
330
1F
100
AcDbEntity
  8
SLD-0
  6
Continuous
370
    15
100
AcDbLine
 10
99.5171815663
 20
40.9483407184
 30
0.0
 11
99.5171815663
 21
40.9184421838
 31
0.0
  0
LINE
  5
37D
330
1F
100
AcDbEntity
  8
SLD-0
  6
Continuous
370
    15
100
AcDbLine
 10
99.9831138905
 20
40.9184421838
 30
0.0
 11
99.5171815663
 21
40.9184421838
 31
0.0
  0
LINE
  5
37E
330
1F
100
AcDbEntity
  8
SLD-0
  6
Continuous
370
    15
100
AcDbLine
 10
99.9831138905
 20
40.9483407184
 30
0.0
 11
99.5171815663
 21
40.9483407184
 31
0.0
  0
ARC
  5
37F
330
1F
100
AcDbEntity
  8
SLD-0
  6
Continuous
370
    15
100
AcDbCircle
 10
99.5171816251
 20
40.9034417594
 30
0.0
 40
0.0448999999999964
100
AcDbArc
 50
90.0
 51
135.0
  0
ARC
  5
380
330
1F
100
AcDbEntity
  8
SLD-0
  6
Continuous
370
    15
100
AcDbCircle
 10
99.5171816251
 20
40.9034417594
 30
0.0
 40
0.0150000000000006
100
AcDbArc
 50
90.0
 51
135.0
  0
LINE
  5
381
330
1F
100
AcDbEntity
  8
SLD-0
  6
Continuous
370
    15
100
AcDbLine
 10
97.4135740807
 20
38.7731959258
 30
0.0
 11
97.4601595692
 21
38.8197814143
 31
0.0
  0
LINE
  5
382
330
1F
100
AcDbEntity
  8
SLD-0
  6
Continuous
370
    15
100
AcDbLine
 10
97.3924308583
 20
38.7943368016
 30
0.0
 11
97.4073367128
 21
38.8092426561
 31
0.0
  0
LINE
  5
383
330
1F
100
AcDbEntity
  8
SLD-0
  6
Continuous
370
    15
100
AcDbLine
 10
100.0731133842
 20
45.2560129824
 30
0.0
 11
100.0731133842
 21
44.8202748695
 31
0.0
  0
LINE
  5
384
330
1F
100
AcDbEntity
  8
SLD-0
  6
Continuous
370
    15
100
AcDbLine
 10
100.0792510199
 20
45.2560129824
 30
0.0
 11
100.0731133842
 21
45.2560129824
 31
0.0
  0
LINE
  5
385
330
1F
100
AcDbEntity
  8
SLD-0
  6
Continuous
370
    15
100
AcDbLine
 10
103.0133236853
 20
10.7201128574
 30
0.0
 11
102.9121706138
 21
10.7201128574
 31
0.0
  0
LINE
  5
386
330
1F
100
AcDbEntity
  8
SLD-0
  6
Continuous
370
    15
100
AcDbLine
 10
102.5321135642
 20
10.7201128574
 30
0.0
 11
101.2191135855
 21
10.7201128574
 31
0.0
  0
LINE
  5
387
330
1F
100
AcDbEntity
  8
SLD-0
  6
Continuous
370
    15
100
AcDbLine
 10
100.8441135442
 20
10.7201128574
 30
0.0
 11
100.0792510199
 21
10.7201128574
 31
0.0
  0
LINE
  5
388
330
1F
100
AcDbEntity
  8
SLD-0
  6
Continuous
370
    15
100
AcDbLine
 10
100.0792510199
 20
10.7201128574
 30
0.0
 11
100.0792510199
 21
11.2440878444
 31
0.0
  0
LINE
  5
389
330
1F
100
AcDbEntity
  8
SLD-0
  6
Continuous
370
    15
100
AcDbLine
 10
100.0792510199
 20
44.814138407
 30
0.0
 11
100.0792510199
 21
45.2581132248
 31
0.0
  0
LINE
  5
38A
330
1F
100
AcDbEntity
  8
SLD-0
  6
Continuous
370
    15
100
AcDbLine
 10
100.0792510199
 20
45.2581132248
 30
0.0
 11
100.8441135442
 21
45.2581132248
 31
0.0
  0
LINE
  5
38B
330
1F
100
AcDbEntity
  8
SLD-0
  6
Continuous
370
    15
100
AcDbLine
 10
101.2191135855
 20
45.2581132248
 30
0.0
 11
102.5321135642
 21
45.2581132248
 31
0.0
  0
LINE
  5
38C
330
1F
100
AcDbEntity
  8
SLD-0
  6
Continuous
370
    15
100
AcDbLine
 10
102.9121706138
 20
45.2581132248
 30
0.0
 11
103.0133236853
 21
45.2581132248
 31
0.0
  0
LINE
  5
38D
330
1F
100
AcDbEntity
  8
SLD-0
  6
Continuous
370
    15
100
AcDbLine
 10
103.0133236853
 20
45.2581132248
 30
0.0
 11
103.0133236853
 21
10.7201128574
 31
0.0
  0
LWPOLYLINE
  5
38E
330
1F
100
AcDbEntity
  8
SLD-0
  6
Continuous
370
    15
100
AcDbPolyline
 90
      102
 70
   128
 43
0.0
 10
114.021370546
 20
20.8441129108
 10
114.0745800114
 20
20.842420397
 10
114.127583559
 20
20.8373487223
 10
114.1801764448
 20
20.8289184197
 10
114.2321550977
 20
20.8171617555
 10
114.2833182933
 20
20.8021244892
 10
114.3334677407
 20
20.7838641135
 10
114.3824101353
 20
20.7624516141
 10
114.4299553994
 20
20.7379697103
 10
114.4759202017
 20
20.7105134408
 10
114.5201261977
 20
20.6801884045
 10
114.5624026693
 20
20.6471131066
 10
114.6025859384
 20
20.6114142656
 10
114.6405208336
 20
20.5732303334
 10
114.676060103
 20
20.5327097348
 10
114.7090664684
 20
20.4900079348
 10
114.7394123312
 20
20.4452915447
 10
114.7669803593
 20
20.3987324559
 10
114.7916637809
 20
20.3505119462
 10
114.8133669702
 20
20.3008154003
 10
114.8320060348
 20
20.2498352426
 10
114.8475091091
 20
20.1977697641
 10
114.8598157669
 20
20.1448190158
 10
114.8688787822
 20
20.0911889153
 10
114.8746629554
 20
20.037085967
 10
114.8771459934
 20
19.9827207817
 10
114.8763179229
 20
19.928302797
 10
114.8721825574
 20
19.8740420371
 10
114.8647554432
 20
19.8201496997
 10
114.8540653267
 20
19.7668334623
 10
114.8401535674
 20
19.7142998292
 10
114.8230744313
 20
19.6627523713
 10
114.8028933311
 20
19.6123899664
 10
114.7796888792
 20
19.5634073856
 10
114.7535505412
 20
19.5159947067
 10
114.7245798092
 20
19.4703343808
 10
114.6928881486
 20
19.4266047526
 10
114.658598758
 20
19.3849730202
 10
114.6218439293
 20
19.3456016884
 10
114.5827659274
 20
19.308642702
 10
114.5415161106
 20
19.2742386194
 10
114.498253757
 20
19.2425231992
 10
114.4531466515
 20
19.2136190531
 10
114.4063690318
 20
19.1876370599
 10
114.3581015894
 20
19.1646787118
 10
114.3085317621
 20
19.1448325944
 10
114.2578513875
 20
19.1281755601
 10
114.2062552369
 20
19.1147721416
 10
114.1539445345
 20
19.1046739649
 10
114.1011205048
 20
19.0979197496
 10
114.0479878919
 20
19.0945358954
 10
113.9947526135
 20
19.0945358954
 10
113.9416200006
 20
19.0979197496
 10
113.8887959709
 20
19.1046739649
 10
113.8364852685
 20
19.1147721416
 10
113.7848891179
 20
19.1281755601
 10
113.7342087433
 20
19.1448325944
 10
113.684638916
 20
19.1646787118
 10
113.6363714736
 20
19.1876370599
 10
113.5895941473
 20
19.2136190531
 10
113.544486455
 20
19.2425231992
 10
113.5012243948
 20
19.2742386194
 10
113.459974578
 20
19.308642702
 10
113.4208965761
 20
19.3456016884
 10
113.3841417474
 20
19.3849730202
 10
113.3498526501
 20
19.4266047526
 10
113.3181606962
 20
19.4703343808
 10
113.2891896709
 20
19.5159947067
 10
113.2630516262
 20
19.5634073856
 10
113.2398468809
 20
19.6123899664
 10
113.2196663674
 20
19.6627523713
 10
113.202586938
 20
19.7142998292
 10
113.1886754721
 20
19.7668334623
 10
113.1779853556
 20
19.8201496997
 10
113.1705582414
 20
19.8740420371
 10
113.1664222891
 20
19.928302797
 10
113.165594512
 20
19.9827207817
 10
113.1680772567
 20
20.037085967
 10
113.1738617232
 20
20.0911889153
 10
113.1829244452
 20
20.1448190158
 10
113.1952313963
 20
20.1977697641
 10
113.2107344706
 20
20.2498352426
 10
113.2293732419
 20
20.3008154003
 10
113.2510767245
 20
20.3505119462
 10
113.2757598527
 20
20.3987324559
 10
113.3033281743
 20
20.4452915447
 10
113.3336737437
 20
20.4900079348
 10
113.3666804024
 20
20.5327097348
 10
113.4022196718
 20
20.5732303334
 10
113.4401542736
 20
20.6114142656
 10
113.4803381294
 20
20.6471131066
 10
113.522614601
 20
20.6801884045
 10
113.566820597
 20
20.7105134408
 10
113.6127848127
 20
20.7379697103
 10
113.6603306635
 20
20.7624516141
 10
113.7092727647
 20
20.7838641135
 10
113.7594222121
 20
20.8021244892
 10
113.8105854077
 20
20.8171617555
 10
113.8625640606
 20
20.8289184197
 10
113.9151569464
 20
20.8373487223
 10
113.9681604941
 20
20.842420397
 10
114.021370546
 20
20.8441129108
  0
LINE
  5
38F
330
1F
100
AcDbEntity
  8
SLD-0
  6
Continuous
370
    15
100
AcDbLine
 10
119.1573702745
 20
45.2581132248
 30
0.0
 11
119.1573702745
 21
10.7201128574
 31
0.0
  0
LINE
  5
390
330
1F
100
AcDbEntity
  8
SLD-0
  6
Continuous
370
    15
100
AcDbLine
 10
118.1776049195
 20
45.2581132248
 30
0.0
 11
119.1573702745
 21
45.2581132248
 31
0.0
  0
LINE
  5
391
330
1F
100
AcDbEntity
  8
SLD-0
  6
Continuous
370
    15
100
AcDbLine
 10
119.1573702745
 20
10.7201128574
 30
0.0
 11
118.1776049195
 21
10.7201128574
 31
0.0
  0
ARC
  5
392
330
1F
100
AcDbEntity
  8
SLD-0
  6
Continuous
370
    15
100
AcDbCircle
 10
114.0014779821
 20
19.9691146464
 30
0.0
 40
0.8751765176994248
100
AcDbArc
 50
271.154683907
 51
88.8322165256
  0
LINE
  5
393
330
1F
100
AcDbEntity
  8
SLD-0
  6
Continuous
370
    15
100
AcDbLine
 10
119.1991133256
 20
45.2581132248
 30
0.0
 11
119.1573702745
 21
45.2581132248
 31
0.0
  0
LINE
  5
394
330
1F
100
AcDbEntity
  8
SLD-0
  6
Continuous
370
    15
100
AcDbLine
 10
119.1991133256
 20
45.1077804548
 30
0.0
 11
119.1991133256
 21
10.8704449675
 31
0.0
  0
LINE
  5
395
330
1F
100
AcDbEntity
  8
SLD-0
  6
Continuous
370
    15
100
AcDbLine
 10
119.1573702745
 20
10.7201128574
 30
0.0
 11
119.1991133256
 21
10.7201128574
 31
0.0
  0
LINE
  5
396
330
1F
100
AcDbEntity
  8
SLD-0
  6
Continuous
370
    15
100
AcDbLine
 10
100.0791137415
 20
45.2581132248
 30
0.0
 11
100.0791137415
 21
45.2560129824
 31
0.0
  0
LINE
  5
397
330
1F
100
AcDbEntity
  8
SLD-0
  6
Continuous
370
    15
100
AcDbLine
 10
100.0791137415
 20
11.2439499427
 30
0.0
 11
100.0791137415
 21
10.7201128574
 31
0.0
  0
LINE
  5
398
330
1F
100
AcDbEntity
  8
SLD-0
  6
Continuous
370
    15
100
AcDbLine
 10
100.0791137415
 20
45.2581132248
 30
0.0
 11
100.0792510199
 21
45.2581132248
 31
0.0
  0
LINE
  5
399
330
1F
100
AcDbEntity
  8
SLD-0
  6
Continuous
370
    15
100
AcDbLine
 10
100.0791137415
 20
10.7201128574
 30
0.0
 11
100.0792510199
 21
10.7201128574
 31
0.0
  0
SPLINE
  5
39A
330
1F
100
AcDbEntity
  8
SLD-0
  6
Continuous
370
    15
100
AcDbSpline
210
0.0
220
0.0
230
1.0
 70
     8
 71
     3
 72
    11
 73
     7
 74
     0
 42
0.00000001
 43
0.00000001
 12
1.0
 22
0.0
 32
0.0
 13
1.0
 23
0.0
 33
0.0
 40
0.0
 40
0.0
 40
0.0
 40
0.0
 40
0.2500053542612967
 40
0.5000000114412378
 40
0.7500027453961748
 40
1.0
 40
1.0
 40
1.0
 40
1.0
 10
102.9721131746618
 20
10.66741283289944
 30
0.0
 10
102.9671180319918
 20
10.66820495113637
 30
0.0
 10
102.957127960381
 20
10.66978915371753
 30
0.0
 10
102.9421415252567
 20
10.68197643580686
 30
0.0
 10
102.9271564974988
 20
10.69939568541443
 30
0.0
 10
102.9171658718649
 20
10.71320718388191
 30
0.0
 10
102.91217061379
 20
10.72011285743759
 30
0.0
  0
SPLINE
  5
39B
330
1F
100
AcDbEntity
  8
SLD-0
  6
Continuous
370
    15
100
AcDbSpline
210
0.0
220
0.0
230
1.0
 70
     8
 71
     3
 72
    11
 73
     7
 74
     0
 42
0.00000001
 43
0.00000001
 12
1.0
 22
0.0
 32
0.0
 13
1.0
 23
0.0
 33
0.0
 40
0.0
 40
0.0
 40
0.0
 40
0.0
 40
0.2500015588324686
 40
0.4999971806379455
 40
0.7500004337364596
 40
1.0
 40
1.0
 40
1.0
 40
1.0
 10
102.9721131746618
 20
10.68911286888544
 30
0.0
 10
102.9671180052387
 20
10.68957880298327
 30
0.0
 10
102.9571277850176
 20
10.69051066011394
 30
0.0
 10
102.942141569843
 20
10.69767969600618
 30
0.0
 10
102.9271564258992
 20
10.70792625293578
 30
0.0
 10
102.9171658599375
 20
10.71605067590582
 30
0.0
 10
102.91217061379
 20
10.72011285743759
 30
0.0
  0
LINE
  5
39C
330
1F
100
AcDbEntity
  8
SLD-0
  6
Continuous
370
    15
100
AcDbLine
 10
102.9721131747
 20
10.6674128329
 30
0.0
 11
102.9721131747
 21
10.6891128689
 31
0.0
  0
LINE
  5
39D
330
1F
100
AcDbEntity
  8
SLD-0
  6
Continuous
370
    15
100
AcDbLine
 10
102.9721131747
 20
10.6674128329
 30
0.0
 11
102.5321135642
 21
10.6674128329
 31
0.0
  0
LINE
  5
39E
330
1F
100
AcDbEntity
  8
SLD-0
  6
Continuous
370
    15
100
AcDbLine
 10
102.5321135642
 20
10.7201128574
 30
0.0
 11
102.5321135642
 21
10.6674128329
 31
0.0
  0
LINE
  5
39F
330
1F
100
AcDbEntity
  8
SLD-0
  6
Continuous
370
    15
100
AcDbLine
 10
102.9121706138
 20
10.7201128574
 30
0.0
 11
102.5321135642
 21
10.7201128574
 31
0.0
  0
LINE
  5
3A0
330
1F
100
AcDbEntity
  8
SLD-0
  6
Continuous
370
    15
100
AcDbLine
 10
101.2191135855
 20
10.7371412474
 30
0.0
 11
101.2191135855
 21
10.7201128574
 31
0.0
  0
LINE
  5
3A1
330
1F
100
AcDbEntity
  8
SLD-0
  6
Continuous
370
    15
100
AcDbLine
 10
101.2191135855
 20
10.7201128574
 30
0.0
 11
100.8441135442
 21
10.7201128574
 31
0.0
  0
LINE
  5
3A2
330
1F
100
AcDbEntity
  8
SLD-0
  6
Continuous
370
    15
100
AcDbLine
 10
100.8441135442
 20
11.3141128522
 30
0.0
 11
100.8441135442
 21
10.7201128574
 31
0.0
  0
LINE
  5
3A3
330
1F
100
AcDbEntity
  8
SLD-0
  6
Continuous
370
    15
100
AcDbLine
 10
102.3181704357
 20
11.3141128522
 30
0.0
 11
100.8441135442
 21
11.3141128522
 31
0.0
  0
LINE
  5
3A4
330
1F
100
AcDbEntity
  8
SLD-0
  6
Continuous
370
    15
100
AcDbLine
 10
102.5321135642
 20
10.7201128574
 30
0.0
 11
102.5321135642
 21
10.7371412474
 31
0.0
  0
LINE
  5
3A5
330
1F
100
AcDbEntity
  8
SLD-0
  6
Continuous
370
    15
100
AcDbLine
 10
102.5321135642
 20
10.7371412474
 30
0.0
 11
101.2191135855
 21
10.7371412474
 31
0.0
  0
LINE
  5
3A6
330
1F
100
AcDbEntity
  8
SLD-0
  6
Continuous
370
    15
100
AcDbLine
 10
102.3181704357
 20
11.3141128522
 30
0.0
 11
102.9121706138
 21
10.7201128574
 31
0.0
  0
LINE
  5
3A7
330
1F
100
AcDbEntity
  8
SLD-0
  6
Continuous
370
    15
100
AcDbLine
 10
101.2191135855
 20
10.6674128329
 30
0.0
 11
101.2191135855
 21
10.7201128574
 31
0.0
  0
LINE
  5
3A8
330
1F
100
AcDbEntity
  8
SLD-0
  6
Continuous
370
    15
100
AcDbLine
 10
101.2191135855
 20
10.6674128329
 30
0.0
 11
100.8441135442
 21
10.6674128329
 31
0.0
  0
LINE
  5
3A9
330
1F
100
AcDbEntity
  8
SLD-0
  6
Continuous
370
    15
100
AcDbLine
 10
100.8441135442
 20
10.7201128574
 30
0.0
 11
100.8441135442
 21
10.6674128329
 31
0.0
  0
SPLINE
  5
3AA
330
1F
100
AcDbEntity
  8
SLD-0
  6
Continuous
370
    15
100
AcDbSpline
210
0.0
220
0.0
230
1.0
 70
     8
 71
     3
 72
    11
 73
     7
 74
     0
 42
0.00000001
 43
0.00000001
 12
1.0
 22
0.0
 32
0.0
 13
1.0
 23
0.0
 33
0.0
 40
0.0
 40
0.0
 40
0.0
 40
0.0
 40
0.2500038126272797
 40
0.4999949881882948
 40
0.7500000905801245
 40
1.0
 40
1.0
 40
1.0
 40
1.0
 10
118.179105595521
 20
10.66741283289944
 30
0.0
 10
118.1795013719121
 20
10.6682049323594
 30
0.0
 10
118.1802929046887
 20
10.66978909124068
 30
0.0
 10
118.1807973540417
 20
10.68197664891584
 30
0.0
 10
118.1802173381442
 20
10.6993956788487
 30
0.0
 10
118.1784757197011
 20
10.71320717905597
 30
0.0
 10
118.1776049195236
 20
10.72011285743759
 30
0.0
  0
LINE
  5
3AB
330
1F
100
AcDbEntity
  8
SLD-0
  6
Continuous
370
    15
100
AcDbLine
 10
118.1791055955
 20
10.6674128329
 30
0.0
 11
102.9721131747
 21
10.6674128329
 31
0.0
  0
SPLINE
  5
3AC
330
1F
100
AcDbEntity
  8
SLD-0
  6
Continuous
370
    15
100
AcDbSpline
210
0.0
220
0.0
230
1.0
 70
     8
 71
     3
 72
    12
 73
     8
 74
     0
 42
0.00000001
 43
0.00000001
 12
1.0
 22
0.0
 32
0.0
 13
1.0
 23
0.0
 33
0.0
 40
0.0
 40
0.0
 40
0.0
 40
0.0
 40
0.2373908417466916
 40
0.4749125904254737
 40
0.712434781793316
 40
0.9499495313990951
 40
1.0
 40
1.0
 40
1.0
 40
1.0
 10
103.0211767145423
 20
10.72011285743759
 30
0.0
 10
103.0180099631734
 20
10.71356225514772
 30
0.0
 10
103.0116747141605
 20
10.70045743830037
 30
0.0
 10
103.0003246176301
 20
10.68349037964755
 30
0.0
 10
102.9879649515116
 20
10.67161065103647
 30
0.0
 10
102.9783067454836
 20
10.66764071842667
 30
0.0
 10
102.973031352146
 20
10.66744661621541
 30
0.0
 10
102.9721131746618
 20
10.66741283289944
 30
0.0
  0
LINE
  5
3AD
330
1F
100
AcDbEntity
  8
SLD-0
  6
Continuous
370
    15
100
AcDbLine
 10
103.0211767145
 20
10.7201128574
 30
0.0
 11
118.1776049195
 21
10.7201128574
 31
0.0
  0
LINE
  5
3AE
330
1F
100
AcDbEntity
  8
SLD-0
  6
Continuous
370
    15
100
AcDbLine
 10
103.0211767145
 20
10.7201128574
 30
0.0
 11
103.0166805531
 21
10.7201128574
 31
0.0
  0
SPLINE
  5
3AF
330
1F
100
AcDbEntity
  8
SLD-0
  6
Continuous
370
    15
100
AcDbSpline
210
0.0
220
0.0
230
1.0
 70
     8
 71
     3
 72
    11
 73
     7
 74
     0
 42
0.00000001
 43
0.00000001
 12
1.0
 22
0.0
 32
0.0
 13
1.0
 23
0.0
 33
0.0
 40
0.0
 40
0.0
 40
0.0
 40
0.0
 40
0.2752269636536693
 40
0.5507923795150943
 40
0.8263747310928254
 40
1.0
 40
1.0
 40
1.0
 40
1.0
 10
103.016680553149
 20
10.72011285743759
 30
0.0
 10
103.0130617237101
 20
10.71563966394295
 30
0.0
 10
103.005819614684
 20
10.70668777617642
 30
0.0
 10
102.9935213798659
 20
10.69581013379922
 30
0.0
 10
102.9820991250848
 20
10.68993096276579
 30
0.0
 10
102.9748969283091
 20
10.68934092647904
 30
0.0
 10
102.9721131746618
 20
10.68911286888544
 30
0.0
  0
LINE
  5
3B0
330
1F
100
AcDbEntity
  8
SLD-0
  6
Continuous
370
    15
100
AcDbLine
 10
103.0211767145
 20
10.7201128574
 30
0.0
 11
103.3991687213
 21
11.3141128522
 31
0.0
  0
LINE
  5
3B1
330
1F
100
AcDbEntity
  8
SLD-0
  6
Continuous
370
    15
100
AcDbLine
 10
103.3991687213
 20
11.3141128522
 30
0.0
 11
118.0545367279
 21
11.3141128522
 31
0.0
  0
LINE
  5
3B2
330
1F
100
AcDbEntity
  8
SLD-0
  6
Continuous
370
    15
100
AcDbLine
 10
118.0545367279
 20
11.3141128522
 30
0.0
 11
118.1776049195
 21
10.7201128574
 31
0.0
  0
LINE
  5
3B3
330
1F
100
AcDbEntity
  8
SLD-0
  6
Continuous
370
    15
100
AcDbLine
 10
103.0166805531
 20
10.7201128574
 30
0.0
 11
103.3946725599
 21
11.3141128522
 31
0.0
  0
LINE
  5
3B4
330
1F
100
AcDbEntity
  8
SLD-0
  6
Continuous
370
    15
100
AcDbLine
 10
103.3991687213
 20
11.3141128522
 30
0.0
 11
103.3946725599
 21
11.3141128522
 31
0.0
  0
LINE
  5
3B5
330
1F
100
AcDbEntity
  8
SLD-0
  6
Continuous
370
    15
100
AcDbLine
 10
100.8441135442
 20
10.6674128329
 30
0.0
 11
100.7331127998
 21
10.6674128329
 31
0.0
  0
LINE
  5
3B6
330
1F
100
AcDbEntity
  8
SLD-0
  6
Continuous
370
    15
100
AcDbLine
 10
100.8441135442
 20
10.6891128689
 30
0.0
 11
100.0651136899
 21
10.6891128689
 31
0.0
  0
LINE
  5
3B7
330
1F
100
AcDbEntity
  8
SLD-0
  6
Continuous
370
    15
100
AcDbLine
 10
100.0316459165
 20
11.1891128628
 30
0.0
 11
100.034113408
 21
11.1891128628
 31
0.0
  0
LINE
  5
3B8
330
1F
100
AcDbEntity
  8
SLD-0
  6
Continuous
370
    15
100
AcDbLine
 10
100.034113408
 20
11.1891128628
 30
0.0
 11
100.034113408
 21
10.7201128574
 31
0.0
  0
ARC
  5
3B9
330
1F
100
AcDbEntity
  8
SLD-0
  6
Continuous
370
    15
100
AcDbCircle
 10
100.0651133264
 20
10.7201128568
 30
0.0
 40
0.0310000000000059
100
AcDbArc
 50
180.0
 51
270.0
  0
LINE
  5
3BA
330
1F
100
AcDbEntity
  8
SLD-0
  6
Continuous
370
    15
100
AcDbLine
 10
101.2191135855
 20
10.6674128329
 30
0.0
 11
102.5321135642
 21
10.6674128329
 31
0.0
  0
LINE
  5
3BB
330
1F
100
AcDbEntity
  8
SLD-0
  6
Continuous
370
    15
100
AcDbLine
 10
101.2191135855
 20
10.6891128689
 30
0.0
 11
102.5321135642
 21
10.6891128689
 31
0.0
  0
LINE
  5
3BC
330
1F
100
AcDbEntity
  8
SLD-0
  6
Continuous
370
    15
100
AcDbLine
 10
119.1681133279
 20
10.6674128329
 30
0.0
 11
119.1681133279
 21
10.6891128689
 31
0.0
  0
LINE
  5
3BD
330
1F
100
AcDbEntity
  8
SLD-0
  6
Continuous
370
    15
100
AcDbLine
 10
119.1681133279
 20
10.6674128329
 30
0.0
 11
118.1791055955
 21
10.6674128329
 31
0.0
  0
LINE
  5
3BE
330
1F
100
AcDbEntity
  8
SLD-0
  6
Continuous
370
    15
100
AcDbLine
 10
119.1681133279
 20
10.6891128689
 30
0.0
 11
118.1791055955
 21
10.6891128689
 31
0.0
  0
LINE
  5
3BF
330
1F
100
AcDbEntity
  8
SLD-0
  6
Continuous
370
    15
100
AcDbLine
 10
119.1991133256
 20
10.7201128574
 30
0.0
 11
119.220813325
 21
10.7201128574
 31
0.0
  0
SPLINE
  5
3C0
330
1F
100
AcDbEntity
  8
SLD-0
  6
Continuous
370
    15
100
AcDbSpline
210
0.0
220
0.0
230
1.0
 70
     8
 71
     3
 72
    11
 73
     7
 74
     0
 42
0.00000001
 43
0.00000001
 12
1.0
 22
0.0
 32
0.0
 13
1.0
 23
0.0
 33
0.0
 40
0.0
 40
0.0
 40
0.0
 40
0.0
 40
0.2499996353879558
 40
0.5000002555447391
 40
0.7499999699969665
 40
1.0
 40
1.0
 40
1.0
 40
1.0
 10
119.2208133249578
 20
10.72011285743759
 30
0.0
 10
119.2200211547791
 20
10.7132072196406
 30
0.0
 10
119.2184368113012
 20
10.69939591684476
 30
0.0
 10
119.2062500379245
 20
10.68197614343678
 30
0.0
 10
119.1888302634238
 20
10.66978937406976
 30
0.0
 10
119.1750189759929
 20
10.66820501362284
 30
0.0
 10
119.1681133279193
 20
10.66741283289944
 30
0.0
  0
SPLINE
  5
3C1
330
1F
100
AcDbEntity
  8
SLD-0
  6
Continuous
370
    15
100
AcDbSpline
210
0.0
220
0.0
230
1.0
 70
     8
 71
     3
 72
    11
 73
     7
 74
     0
 42
0.00000001
 43
0.00000001
 12
1.0
 22
0.0
 32
0.0
 13
1.0
 23
0.0
 33
0.0
 40
0.0
 40
0.0
 40
0.0
 40
0.0
 40
0.2500004598498618
 40
0.5000002070060526
 40
0.7500002000237692
 40
1.0
 40
1.0
 40
1.0
 40
1.0
 10
119.199113325638
 20
10.72011285743759
 30
0.0
 10
119.1986473519291
 20
10.71605069701832
 30
0.0
 10
119.1977154058395
 20
10.70792638776004
 30
0.0
 10
119.1905466545327
 20
10.69767950966915
 30
0.0
 10
119.1802997836617
 20
10.69051074914229
 30
0.0
 10
119.1721754787879
 20
10.68957882885112
 30
0.0
 10
119.1681133279193
 20
10.68911286888544
 30
0.0
  0
LINE
  5
3C2
330
1F
100
AcDbEntity
  8
SLD-0
  6
Continuous
370
    15
100
AcDbLine
 10
119.220813325
 20
10.7201128574
 30
0.0
 11
119.220813325
 21
11.3141128522
 31
0.0
  0
LINE
  5
3C3
330
1F
100
AcDbEntity
  8
SLD-0
  6
Continuous
370
    15
100
AcDbLine
 10
119.1991133256
 20
10.7201128574
 30
0.0
 11
119.1991133256
 21
10.8704449675
 31
0.0
  0
LINE
  5
3C4
330
1F
100
AcDbEntity
  8
SLD-0
  6
Continuous
370
    15
100
AcDbLine
 10
119.1991133256
 20
11.3141128522
 30
0.0
 11
119.220813325
 21
11.3141128522
 31
0.0
  0
LINE
  5
3C5
330
1F
100
AcDbEntity
  8
SLD-0
  6
Continuous
370
    15
100
AcDbLine
 10
100.8144883931
 20
19.3451130007
 30
0.0
 11
100.8144883931
 21
16.2201127543
 31
0.0
  0
LINE
  5
3C6
330
1F
100
AcDbEntity
  8
SLD-0
  6
Continuous
370
    15
100
AcDbLine
 10
100.8144883931
 20
16.2201127543
 30
0.0
 11
100.7664878809
 21
16.2201127543
 31
0.0
  0
LINE
  5
3C7
330
1F
100
AcDbEntity
  8
SLD-0
  6
Continuous
370
    15
100
AcDbLine
 10
100.8144883931
 20
19.3451130007
 30
0.0
 11
100.7664878809
 21
19.3451130007
 31
0.0
  0
LINE
  5
3C8
330
1F
100
AcDbEntity
  8
SLD-0
  6
Continuous
370
    15
100
AcDbLine
 10
100.7664878809
 20
19.3451130007
 30
0.0
 11
100.7664878809
 21
16.2201127543
 31
0.0
  0
LINE
  5
3C9
330
1F
100
AcDbEntity
  8
SLD-0
  6
Continuous
370
    15
100
AcDbLine
 10
100.8294881131
 20
16.2201127543
 30
0.0
 11
100.8144883931
 21
16.2201127543
 31
0.0
  0
LINE
  5
3CA
330
1F
100
AcDbEntity
  8
SLD-0
  6
Continuous
370
    15
100
AcDbLine
 10
100.8294881131
 20
16.2201127543
 30
0.0
 11
100.8294881131
 21
19.3451130007
 31
0.0
  0
LINE
  5
3CB
330
1F
100
AcDbEntity
  8
SLD-0
  6
Continuous
370
    15
100
AcDbLine
 10
100.8144883931
 20
19.3451130007
 30
0.0
 11
100.8294881131
 21
19.3451130007
 31
0.0
  0
LINE
  5
3CC
330
1F
100
AcDbEntity
  8
SLD-0
  6
Continuous
370
    15
100
AcDbLine
 10
100.8294881131
 20
19.3451130007
 30
0.0
 11
102.4071127683
 21
19.3451130007
 31
0.0
  0
LINE
  5
3CD
330
1F
100
AcDbEntity
  8
SLD-0
  6
Continuous
370
    15
100
AcDbLine
 10
102.4071127683
 20
19.3451130007
 30
0.0
 11
102.4071127683
 21
16.2201127543
 31
0.0
  0
LINE
  5
3CE
330
1F
100
AcDbEntity
  8
SLD-0
  6
Continuous
370
    15
100
AcDbLine
 10
100.8294881131
 20
16.2201127543
 30
0.0
 11
102.4071127683
 21
16.2201127543
 31
0.0
  0
LINE
  5
3CF
330
1F
100
AcDbEntity
  8
SLD-0
  6
Continuous
370
    15
100
AcDbLine
 10
100.8144883931
 20
39.258112564
 30
0.0
 11
100.8144883931
 21
36.1331137843
 31
0.0
  0
LINE
  5
3D0
330
1F
100
AcDbEntity
  8
SLD-0
  6
Continuous
370
    15
100
AcDbLine
 10
100.8144883931
 20
36.1331137843
 30
0.0
 11
100.7664878809
 21
36.1331137843
 31
0.0
  0
LINE
  5
3D1
330
1F
100
AcDbEntity
  8
SLD-0
  6
Continuous
370
    15
100
AcDbLine
 10
100.7664878809
 20
39.258112564
 30
0.0
 11
100.7664878809
 21
36.1331137843
 31
0.0
  0
LINE
  5
3D2
330
1F
100
AcDbEntity
  8
SLD-0
  6
Continuous
370
    15
100
AcDbLine
 10
100.8144883931
 20
39.258112564
 30
0.0
 11
100.7664878809
 21
39.258112564
 31
0.0
  0
LINE
  5
3D3
330
1F
100
AcDbEntity
  8
SLD-0
  6
Continuous
370
    15
100
AcDbLine
 10
100.8144883931
 20
39.258112564
 30
0.0
 11
100.8294881131
 21
39.258112564
 31
0.0
  0
LINE
  5
3D4
330
1F
100
AcDbEntity
  8
SLD-0
  6
Continuous
370
    15
100
AcDbLine
 10
100.8294881131
 20
36.1331137843
 30
0.0
 11
100.8294881131
 21
39.258112564
 31
0.0
  0
LINE
  5
3D5
330
1F
100
AcDbEntity
  8
SLD-0
  6
Continuous
370
    15
100
AcDbLine
 10
100.8294881131
 20
36.1331137843
 30
0.0
 11
100.8144883931
 21
36.1331137843
 31
0.0
  0
LINE
  5
3D6
330
1F
100
AcDbEntity
  8
SLD-0
  6
Continuous
370
    15
100
AcDbLine
 10
100.8294881131
 20
39.258112564
 30
0.0
 11
102.4071127683
 21
39.258112564
 31
0.0
  0
LINE
  5
3D7
330
1F
100
AcDbEntity
  8
SLD-0
  6
Continuous
370
    15
100
AcDbLine
 10
102.4071127683
 20
39.258112564
 30
0.0
 11
102.4071127683
 21
36.1331137843
 31
0.0
  0
LINE
  5
3D8
330
1F
100
AcDbEntity
  8
SLD-0
  6
Continuous
370
    15
100
AcDbLine
 10
100.8294881131
 20
36.1331137843
 30
0.0
 11
102.4071127683
 21
36.1331137843
 31
0.0
  0
LINE
  5
3D9
330
1F
100
AcDbEntity
  8
SLD-0
  6
Continuous
370
    15
100
AcDbLine
 10
103.0835128478
 20
45.3408134961
 30
0.0
 11
103.0835128478
 21
45.3108117094
 31
0.0
  0
LINE
  5
3DA
330
1F
100
AcDbEntity
  8
SLD-0
  6
Continuous
370
    15
100
AcDbLine
 10
117.5835133692
 20
45.3408134961
 30
0.0
 11
103.0835128478
 21
45.3408134961
 31
0.0
  0
LINE
  5
3DB
330
1F
100
AcDbEntity
  8
SLD-0
  6
Continuous
370
    15
100
AcDbLine
 10
117.5835133692
 20
45.3408134961
 30
0.0
 11
117.5835133692
 21
45.3108117094
 31
0.0
  0
LINE
  5
3DC
330
1F
100
AcDbEntity
  8
SLD-0
  6
Continuous
370
    15
100
AcDbLine
 10
103.0835128478
 20
45.3408134961
 30
0.0
 11
103.0835128478
 21
45.3482546902
 31
0.0
  0
LINE
  5
3DD
330
1F
100
AcDbEntity
  8
SLD-0
  6
Continuous
370
    15
100
AcDbLine
 10
117.5835133692
 20
45.3482546902
 30
0.0
 11
103.0835128478
 21
45.3482546902
 31
0.0
  0
LINE
  5
3DE
330
1F
100
AcDbEntity
  8
SLD-0
  6
Continuous
370
    15
100
AcDbLine
 10
117.5835133692
 20
45.3482546902
 30
0.0
 11
117.5835133692
 21
45.3408134961
 31
0.0
  0
LINE
  5
3DF
330
1F
100
AcDbEntity
  8
SLD-0
  6
Continuous
370
    15
100
AcDbLine
 10
100.7085129773
 20
48.3037181484
 30
0.0
 11
117.5835133692
 21
48.3037181484
 31
0.0
  0
LINE
  5
3E0
330
1F
100
AcDbEntity
  8
SLD-0
  6
Continuous
370
    15
100
AcDbLine
 10
103.0835128478
 20
45.3482546902
 30
0.0
 11
103.0835128478
 21
46.8108118746
 31
0.0
  0
LINE
  5
3E1
330
1F
100
AcDbEntity
  8
SLD-0
  6
Continuous
370
    15
100
AcDbLine
 10
103.0835128478
 20
46.8108118746
 30
0.0
 11
103.0835128478
 21
46.8259289266
 31
0.0
  0
LINE
  5
3E2
330
1F
100
AcDbEntity
  8
SLD-0
  6
Continuous
370
    15
100
AcDbLine
 10
100.9585133959
 20
46.8259289266
 30
0.0
 11
103.0835128478
 21
46.8259289266
 31
0.0
  0
LINE
  5
3E3
330
1F
100
AcDbEntity
  8
SLD-0
  6
Continuous
370
    15
100
AcDbLine
 10
100.7085129773
 20
47.0418737387
 30
0.0
 11
100.9585133959
 21
46.8259289266
 31
0.0
  0
LINE
  5
3E4
330
1F
100
AcDbEntity
  8
SLD-0
  6
Continuous
370
    15
100
AcDbLine
 10
100.7085129773
 20
47.0418737387
 30
0.0
 11
100.7085129773
 21
48.3037181484
 31
0.0
  0
LINE
  5
3E5
330
1F
100
AcDbEntity
  8
SLD-0
  6
Continuous
370
    15
100
AcDbLine
 10
109.0835135086
 20
47.5065740771
 30
0.0
 11
109.0835135086
 21
46.6427948289
 31
0.0
  0
ARC
  5
3E6
330
1F
100
AcDbEntity
  8
SLD-0
  6
Continuous
370
    15
100
AcDbCircle
 10
109.2085131312
 20
46.6571617881
 30
0.0
 40
0.125822554347916
100
AcDbArc
 50
186.5565784809
 51
353.4434215191
  0
LINE
  5
3E7
330
1F
100
AcDbEntity
  8
SLD-0
  6
Continuous
370
    15
100
AcDbLine
 10
109.3335127539
 20
46.6427948289
 30
0.0
 11
109.3335127539
 21
47.5065740771
 31
0.0
  0
ARC
  5
3E8
330
1F
100
AcDbEntity
  8
SLD-0
  6
Continuous
370
    15
100
AcDbCircle
 10
109.2085131312
 20
47.4922041695
 30
0.0
 40
0.1258228910351896
100
AcDbArc
 50
6.5579122773
 51
173.4420877227
  0
LINE
  5
3E9
330
1F
100
AcDbEntity
  8
SLD-0
  6
Continuous
370
    15
100
AcDbLine
 10
106.0835131782
 20
47.5065740771
 30
0.0
 11
106.0835131782
 21
46.6427948289
 31
0.0
  0
ARC
  5
3EA
330
1F
100
AcDbEntity
  8
SLD-0
  6
Continuous
370
    15
100
AcDbCircle
 10
106.2085133875
 20
46.6571627928
 30
0.0
 40
0.1258232518936222
100
AcDbArc
 50
186.5570024859
 51
353.4429975141
  0
LINE
  5
3EB
330
1F
100
AcDbEntity
  8
SLD-0
  6
Continuous
370
    15
100
AcDbLine
 10
106.3335135968
 20
46.6427948289
 30
0.0
 11
106.3335135968
 21
47.5065740771
 31
0.0
  0
ARC
  5
3EC
330
1F
100
AcDbEntity
  8
SLD-0
  6
Continuous
370
    15
100
AcDbCircle
 10
106.2085133875
 20
47.4922033673
 30
0.0
 40
0.125823565483829
100
AcDbArc
 50
6.5582447036
 51
173.4417552964
  0
LINE
  5
3ED
330
1F
100
AcDbEntity
  8
SLD-0
  6
Continuous
370
    15
100
AcDbLine
 10
117.5835133692
 20
45.3482546902
 30
0.0
 11
117.5835133692
 21
48.3037181484
 31
0.0
  0
LINE
  5
3EE
330
1F
100
AcDbEntity
  8
SLD-0
  6
Continuous
370
    15
100
AcDbLine
 10
100.9585133959
 20
46.8108118746
 30
0.0
 11
100.9585133959
 21
46.8259289266
 31
0.0
  0
LINE
  5
3EF
330
1F
100
AcDbEntity
  8
SLD-0
  6
Continuous
370
    15
100
AcDbLine
 10
100.9585133959
 20
46.8108118746
 30
0.0
 11
103.0835128478
 21
46.8108118746
 31
0.0
  0
LINE
  5
3F0
330
1F
100
AcDbEntity
  8
SLD-0
  6
Continuous
370
    15
100
AcDbLine
 10
100.7085129773
 20
47.0267566867
 30
0.0
 11
100.7085129773
 21
47.0418737387
 31
0.0
  0
LINE
  5
3F1
330
1F
100
AcDbEntity
  8
SLD-0
  6
Continuous
370
    15
100
AcDbLine
 10
100.7085129773
 20
47.0267566867
 30
0.0
 11
100.9585133959
 21
46.8108118746
 31
0.0
  0
ARC
  5
3F2
330
1F
100
AcDbEntity
  8
SLD-0
  6
Continuous
370
    15
100
AcDbCircle
 10
109.2085131312
 20
47.4770889481
 30
0.0
 40
0.1258226819800331
100
AcDbArc
 50
6.5570841319
 51
173.4429158681
  0
ARC
  5
3F3
330
1F
100
AcDbEntity
  8
SLD-0
  6
Continuous
370
    15
100
AcDbCircle
 10
106.2085133875
 20
47.4770881459
 30
0.0
 40
0.1258233564160655
100
AcDbArc
 50
6.557416555
 51
173.442583445
  0
LINE
  5
3F4
330
1F
100
AcDbEntity
  8
SLD-0
  6
Continuous
370
    15
100
AcDbLine
 10
100.7085129773
 20
48.3037181484
 30
0.0
 11
100.7085129773
 21
48.3260440772
 31
0.0
  0
LINE
  5
3F5
330
1F
100
AcDbEntity
  8
SLD-0
  6
Continuous
370
    15
100
AcDbLine
 10
117.5835133692
 20
48.3260440772
 30
0.0
 11
117.5835133692
 21
48.3037181484
 31
0.0
  0
SPLINE
  5
3F6
330
1F
100
AcDbEntity
  8
SLD-0
  6
Continuous
370
    15
100
AcDbSpline
210
0.0
220
0.0
230
1.0
 70
     8
 71
     3
 72
    11
 73
     7
 74
     0
 42
0.00000001
 43
0.00000001
 12
1.0
 22
0.0
 32
0.0
 13
1.0
 23
0.0
 33
0.0
 40
0.0
 40
0.0
 40
0.0
 40
0.0
 40
0.2499953262579589
 40
0.5000018924662047
 40
0.7499955358114406
 40
1.0
 40
1.0
 40
1.0
 40
1.0
 10
102.91217061379
 20
45.25811322484343
 30
0.0
 10
102.9171659096537
 20
45.26501872830534
 30
0.0
 10
102.9271567259727
 20
45.278830045705
 30
0.0
 10
102.9421413202378
 20
45.29624976380928
 30
0.0
 10
102.9571279917568
 20
45.30843671662801
 30
0.0
 10
102.967118041626
 20
45.31002003372033
 30
0.0
 10
102.9721131746618
 20
45.31081170939938
 30
0.0
  0
LINE
  5
3F7
330
1F
100
AcDbEntity
  8
SLD-0
  6
Continuous
370
    15
100
AcDbLine
 10
102.9721131747
 20
45.3108117094
 30
0.0
 11
102.9721131747
 21
45.2891123334
 31
0.0
  0
SPLINE
  5
3F8
330
1F
100
AcDbEntity
  8
SLD-0
  6
Continuous
370
    15
100
AcDbSpline
210
0.0
220
0.0
230
1.0
 70
     8
 71
     3
 72
    11
 73
     7
 74
     0
 42
0.00000001
 43
0.00000001
 12
1.0
 22
0.0
 32
0.0
 13
1.0
 23
0.0
 33
0.0
 40
0.0
 40
0.0
 40
0.0
 40
0.0
 40
0.2499924656258737
 40
0.500000218659253
 40
0.7500000174575492
 40
1.0
 40
1.0
 40
1.0
 40
1.0
 10
102.91217061379
 20
45.25811322484343
 30
0.0
 10
102.9171659204267
 20
45.26217501098359
 30
0.0
 10
102.9271568391705
 20
45.27029883164806
 30
0.0
 10
102.9421415328266
 20
45.28054586712792
 30
0.0
 10
102.9571275914848
 20
45.28771637366599
 30
0.0
 10
102.9671179790457
 20
45.28864701337852
 30
0.0
 10
102.9721131746618
 20
45.28911233340575
 30
0.0
  0
LINE
  5
3F9
330
1F
100
AcDbEntity
  8
SLD-0
  6
Continuous
370
    15
100
AcDbLine
 10
102.5321135642
 20
45.2581132248
 30
0.0
 11
102.9121706138
 21
45.2581132248
 31
0.0
  0
LINE
  5
3FA
330
1F
100
AcDbEntity
  8
SLD-0
  6
Continuous
370
    15
100
AcDbLine
 10
102.5321135642
 20
45.3108117094
 30
0.0
 11
102.5321135642
 21
45.2581132248
 31
0.0
  0
LINE
  5
3FB
330
1F
100
AcDbEntity
  8
SLD-0
  6
Continuous
370
    15
100
AcDbLine
 10
102.5321135642
 20
45.3108117094
 30
0.0
 11
102.9721131747
 21
45.3108117094
 31
0.0
  0
LINE
  5
3FC
330
1F
100
AcDbEntity
  8
SLD-0
  6
Continuous
370
    15
100
AcDbLine
 10
102.5321135642
 20
45.2410836616
 30
0.0
 11
102.5321135642
 21
45.2581132248
 31
0.0
  0
LINE
  5
3FD
330
1F
100
AcDbEntity
  8
SLD-0
  6
Continuous
370
    15
100
AcDbLine
 10
102.3181704357
 20
44.6641130468
 30
0.0
 11
100.8441135442
 21
44.6641130468
 31
0.0
  0
LINE
  5
3FE
330
1F
100
AcDbEntity
  8
SLD-0
  6
Continuous
370
    15
100
AcDbLine
 10
100.8441135442
 20
44.6641130468
 30
0.0
 11
100.8441135442
 21
45.2581132248
 31
0.0
  0
LINE
  5
3FF
330
1F
100
AcDbEntity
  8
SLD-0
  6
Continuous
370
    15
100
AcDbLine
 10
100.8441135442
 20
45.2581132248
 30
0.0
 11
101.2191135855
 21
45.2581132248
 31
0.0
  0
LINE
  5
400
330
1F
100
AcDbEntity
  8
SLD-0
  6
Continuous
370
    15
100
AcDbLine
 10
101.2191135855
 20
45.2581132248
 30
0.0
 11
101.2191135855
 21
45.2410836616
 31
0.0
  0
LINE
  5
401
330
1F
100
AcDbEntity
  8
SLD-0
  6
Continuous
370
    15
100
AcDbLine
 10
101.2191135855
 20
45.2410836616
 30
0.0
 11
102.5321135642
 21
45.2410836616
 31
0.0
  0
LINE
  5
402
330
1F
100
AcDbEntity
  8
SLD-0
  6
Continuous
370
    15
100
AcDbLine
 10
102.9121706138
 20
45.2581132248
 30
0.0
 11
102.3181704357
 21
44.6641130468
 31
0.0
  0
LINE
  5
403
330
1F
100
AcDbEntity
  8
SLD-0
  6
Continuous
370
    15
100
AcDbLine
 10
100.8441135442
 20
45.3108117094
 30
0.0
 11
101.2191135855
 21
45.3108117094
 31
0.0
  0
LINE
  5
404
330
1F
100
AcDbEntity
  8
SLD-0
  6
Continuous
370
    15
100
AcDbLine
 10
101.2191135855
 20
45.2581132248
 30
0.0
 11
101.2191135855
 21
45.3108117094
 31
0.0
  0
LINE
  5
405
330
1F
100
AcDbEntity
  8
SLD-0
  6
Continuous
370
    15
100
AcDbLine
 10
100.8441135442
 20
45.3108117094
 30
0.0
 11
100.8441135442
 21
45.2581132248
 31
0.0
  0
SPLINE
  5
406
330
1F
100
AcDbEntity
  8
SLD-0
  6
Continuous
370
    15
100
AcDbSpline
210
0.0
220
0.0
230
1.0
 70
     8
 71
     3
 72
    11
 73
     7
 74
     0
 42
0.00000001
 43
0.00000001
 12
1.0
 22
0.0
 32
0.0
 13
1.0
 23
0.0
 33
0.0
 40
0.0
 40
0.0
 40
0.0
 40
0.0
 40
0.2499970256039149
 40
0.500007859200943
 40
0.7499975185053321
 40
1.0
 40
1.0
 40
1.0
 40
1.0
 10
118.1776049195236
 20
45.25811322484343
 30
0.0
 10
118.1784757205829
 20
45.26501875331473
 30
0.0
 10
118.1802173707982
 20
45.27883019166779
 30
0.0
 10
118.1807973461692
 20
45.29624944532306
 30
0.0
 10
118.1802929075101
 20
45.30843679673342
 30
0.0
 10
118.1795013729503
 20
45.31002005830992
 30
0.0
 10
118.179105595521
 20
45.31081170939938
 30
0.0
  0
LINE
  5
407
330
1F
100
AcDbEntity
  8
SLD-0
  6
Continuous
370
    15
100
AcDbLine
 10
118.1776049195
 20
45.2581132248
 30
0.0
 11
103.0211767145
 21
45.2581132248
 31
0.0
  0
SPLINE
  5
408
330
1F
100
AcDbEntity
  8
SLD-0
  6
Continuous
370
    15
100
AcDbSpline
210
0.0
220
0.0
230
1.0
 70
     8
 71
     3
 72
    12
 73
     8
 74
     0
 42
0.00000001
 43
0.00000001
 12
1.0
 22
0.0
 32
0.0
 13
1.0
 23
0.0
 33
0.0
 40
0.0
 40
0.0
 40
0.0
 40
0.0
 40
0.2374030583930883
 40
0.4749254158715969
 40
0.712445396226344
 40
0.9499575737478743
 40
1.0
 40
1.0
 40
1.0
 40
1.0
 10
102.9721131746618
 20
45.31081170939938
 30
0.0
 10
102.9764897030253
 20
45.31009837794836
 30
0.0
 10
102.9852449590325
 20
45.30867135658509
 30
0.0
 10
102.9978215999827
 20
45.29762616127257
 30
0.0
 10
103.0093380178713
 20
45.28167850557171
 30
0.0
 10
103.0168584770217
 20
45.26738427398502
 30
0.0
 10
103.0205366168416
 20
45.25948748395027
 30
0.0
 10
103.0211767145423
 20
45.25811322484343
 30
0.0
  0
LINE
  5
409
330
1F
100
AcDbEntity
  8
SLD-0
  6
Continuous
370
    15
100
AcDbLine
 10
102.9721131747
 20
45.3108117094
 30
0.0
 11
118.1791055955
 21
45.3108117094
 31
0.0
  0
LINE
  5
40A
330
1F
100
AcDbEntity
  8
SLD-0
  6
Continuous
370
    15
100
AcDbLine
 10
103.0211767145
 20
45.2581132248
 30
0.0
 11
103.0166805531
 21
45.2581132248
 31
0.0
  0
SPLINE
  5
40B
330
1F
100
AcDbEntity
  8
SLD-0
  6
Continuous
370
    15
100
AcDbSpline
210
0.0
220
0.0
230
1.0
 70
     8
 71
     3
 72
    11
 73
     7
 74
     0
 42
0.00000001
 43
0.00000001
 12
1.0
 22
0.0
 32
0.0
 13
1.0
 23
0.0
 33
0.0
 40
0.0
 40
0.0
 40
0.0
 40
0.0
 40
0.2752325651931184
 40
0.5508163507867594
 40
0.8263851564521062
 40
1.0
 40
1.0
 40
1.0
 40
1.0
 10
102.9721131746618
 20
45.28911233340575
 30
0.0
 10
102.9765416439168
 20
45.28854602595253
 30
0.0
 10
102.985404233534
 20
45.2874126883891
 30
0.0
 10
102.9981654349219
 20
45.27877461197625
 30
0.0
 10
103.0086163527383
 20
45.26820435338482
 30
0.0
 10
103.014432530861
 20
45.26092628512426
 30
0.0
 10
103.016680553149
 20
45.25811322484345
 30
0.0
  0
LINE
  5
40C
330
1F
100
AcDbEntity
  8
SLD-0
  6
Continuous
370
    15
100
AcDbLine
 10
103.3991687213
 20
44.6641130468
 30
0.0
 11
103.0211767145
 21
45.2581132248
 31
0.0
  0
LINE
  5
40D
330
1F
100
AcDbEntity
  8
SLD-0
  6
Continuous
370
    15
100
AcDbLine
 10
118.1776049195
 20
45.2581132248
 30
0.0
 11
118.0545367279
 21
44.6641130468
 31
0.0
  0
LINE
  5
40E
330
1F
100
AcDbEntity
  8
SLD-0
  6
Continuous
370
    15
100
AcDbLine
 10
103.3991687213
 20
44.6641130468
 30
0.0
 11
118.0545367279
 21
44.6641130468
 31
0.0
  0
LINE
  5
40F
330
1F
100
AcDbEntity
  8
SLD-0
  6
Continuous
370
    15
100
AcDbLine
 10
103.3991687213
 20
44.6641130468
 30
0.0
 11
103.3946725599
 21
44.6641130468
 31
0.0
  0
LINE
  5
410
330
1F
100
AcDbEntity
  8
SLD-0
  6
Continuous
370
    15
100
AcDbLine
 10
103.3946725599
 20
44.6641130468
 30
0.0
 11
103.0166805531
 21
45.2581132248
 31
0.0
  0
LINE
  5
411
330
1F
100
AcDbEntity
  8
SLD-0
  6
Continuous
370
    15
100
AcDbLine
 10
100.0651136899
 20
45.2891123334
 30
0.0
 11
100.0651136899
 21
45.3108117094
 31
0.0
  0
LINE
  5
412
330
1F
100
AcDbEntity
  8
SLD-0
  6
Continuous
370
    15
100
AcDbLine
 10
100.0651136899
 20
45.2891123334
 30
0.0
 11
100.8441135442
 21
45.2891123334
 31
0.0
  0
LINE
  5
413
330
1F
100
AcDbEntity
  8
SLD-0
  6
Continuous
370
    15
100
AcDbLine
 10
100.0651136899
 20
45.3108117094
 30
0.0
 11
100.8441135442
 21
45.3108117094
 31
0.0
  0
ARC
  5
414
330
1F
100
AcDbEntity
  8
SLD-0
  6
Continuous
370
    15
100
AcDbCircle
 10
100.0651133264
 20
45.2581128568
 30
0.0
 40
0.0310000000000059
100
AcDbArc
 50
90.0
 51
180.0
  0
ARC
  5
415
330
1F
100
AcDbEntity
  8
SLD-0
  6
Continuous
370
    15
100
AcDbCircle
 10
100.0651133264
 20
45.2581128568
 30
0.0
 40
0.0526999999999944
100
AcDbArc
 50
90.0
 51
156.6941617947
  0
LINE
  5
416
330
1F
100
AcDbEntity
  8
SLD-0
  6
Continuous
370
    15
100
AcDbLine
 10
100.034113408
 20
45.2581132248
 30
0.0
 11
100.034113408
 21
44.8650581388
 31
0.0
  0
LINE
  5
417
330
1F
100
AcDbEntity
  8
SLD-0
  6
Continuous
370
    15
100
AcDbLine
 10
102.5321135642
 20
45.2891123334
 30
0.0
 11
101.2191135855
 21
45.2891123334
 31
0.0
  0
LINE
  5
418
330
1F
100
AcDbEntity
  8
SLD-0
  6
Continuous
370
    15
100
AcDbLine
 10
102.5321135642
 20
45.3108117094
 30
0.0
 11
101.2191135855
 21
45.3108117094
 31
0.0
  0
LINE
  5
419
330
1F
100
AcDbEntity
  8
SLD-0
  6
Continuous
370
    15
100
AcDbLine
 10
119.1681133279
 20
45.3108117094
 30
0.0
 11
119.1681133279
 21
45.2891123334
 31
0.0
  0
LINE
  5
41A
330
1F
100
AcDbEntity
  8
SLD-0
  6
Continuous
370
    15
100
AcDbLine
 10
118.1791055955
 20
45.2891123334
 30
0.0
 11
119.1681133279
 21
45.2891123334
 31
0.0
  0
LINE
  5
41B
330
1F
100
AcDbEntity
  8
SLD-0
  6
Continuous
370
    15
100
AcDbLine
 10
118.1791055955
 20
45.3108117094
 30
0.0
 11
119.1681133279
 21
45.3108117094
 31
0.0
  0
LINE
  5
41C
330
1F
100
AcDbEntity
  8
SLD-0
  6
Continuous
370
    15
100
AcDbLine
 10
119.220813325
 20
45.2581132248
 30
0.0
 11
119.1991133256
 21
45.2581132248
 31
0.0
  0
SPLINE
  5
41D
330
1F
100
AcDbEntity
  8
SLD-0
  6
Continuous
370
    15
100
AcDbSpline
210
0.0
220
0.0
230
1.0
 70
     8
 71
     3
 72
    11
 73
     7
 74
     0
 42
0.00000001
 43
0.00000001
 12
1.0
 22
0.0
 32
0.0
 13
1.0
 23
0.0
 33
0.0
 40
0.0
 40
0.0
 40
0.0
 40
0.0
 40
0.2499986987879794
 40
0.4999968971114942
 40
0.7500032484399956
 40
0.9999999999999999
 40
0.9999999999999999
 40
0.9999999999999999
 40
0.9999999999999999
 10
119.1681133279193
 20
45.31081170939938
 30
0.0
 10
119.1750189665971
 20
45.31001997704623
 30
0.0
 10
119.1888302301285
 20
45.30843651392483
 30
0.0
 10
119.2062503065266
 20
45.29624995080232
 30
0.0
 10
119.2184366272208
 20
45.27882995367636
 30
0.0
 10
119.2200211025191
 20
45.26501871273182
 30
0.0
 10
119.2208133249578
 20
45.25811322484343
 30
0.0
  0
SPLINE
  5
41E
330
1F
100
AcDbEntity
  8
SLD-0
  6
Continuous
370
    15
100
AcDbSpline
210
0.0
220
0.0
230
1.0
 70
     8
 71
     3
 72
    11
 73
     7
 74
     0
 42
0.00000001
 43
0.00000001
 12
1.0
 22
0.0
 32
0.0
 13
1.0
 23
0.0
 33
0.0
 40
0.0
 40
0.0
 40
0.0
 40
0.0
 40
0.2499960616020721
 40
0.5000059610208677
 40
0.7500163807205662
 40
0.9999999999999999
 40
0.9999999999999999
 40
0.9999999999999999
 40
0.9999999999999999
 10
119.1681133279193
 20
45.28911233340575
 30
0.0
 10
119.1721755271936
 20
45.28864697121739
 30
0.0
 10
119.1803001505937
 20
45.28771622108187
 30
0.0
 10
119.1905466257107
 20
45.28054598802257
 30
0.0
 10
119.1977151399004
 20
45.27029912814056
 30
0.0
 10
119.1986472803802
 20
45.2621750474549
 30
0.0
 10
119.199113325638
 20
45.25811322484343
 30
0.0
  0
LINE
  5
41F
330
1F
100
AcDbEntity
  8
SLD-0
  6
Continuous
370
    15
100
AcDbLine
 10
119.220813325
 20
44.6641130468
 30
0.0
 11
119.1991133256
 21
44.6641130468
 31
0.0
  0
LINE
  5
420
330
1F
100
AcDbEntity
  8
SLD-0
  6
Continuous
370
    15
100
AcDbLine
 10
119.1991133256
 20
45.1077804548
 30
0.0
 11
119.1991133256
 21
45.2581132248
 31
0.0
  0
LINE
  5
421
330
1F
100
AcDbEntity
  8
SLD-0
  6
Continuous
370
    15
100
AcDbLine
 10
119.220813325
 20
44.6641130468
 30
0.0
 11
119.220813325
 21
45.2581132248
 31
0.0
  0
LINE
  5
422
330
1F
100
AcDbEntity
  8
SLD-0
  6
Continuous
370
    15
100
AcDbLine
 10
103.0242801454
 20
45.2461711761
 30
0.0
 11
103.0242801454
 21
10.7320548328
 31
0.0
  0
LINE
  5
423
330
1F
100
AcDbEntity
  8
SLD-0
  6
Continuous
370
    15
100
AcDbLine
 10
100.0651136899
 20
10.6891128689
 30
0.0
 11
100.0651136899
 21
10.6777128206
 31
0.0
  0
LINE
  5
424
330
1F
100
AcDbEntity
  8
SLD-0
  6
Continuous
370
    15
100
AcDbLine
 10
100.034113408
 20
10.7201128574
 30
0.0
 11
100.0167130757
 21
10.7201128574
 31
0.0
  0
LINE
  5
425
330
1F
100
AcDbEntity
  8
SLD-0
  6
Continuous
370
    15
100
AcDbLine
 10
100.034113408
 20
45.2581132248
 30
0.0
 11
100.0167130757
 21
45.2581132248
 31
0.0
  0
DIMENSION
  5
426
330
1F
100
AcDbEntity
  8
DIM
100
AcDbDimension
  2
_D_8
 10
93.8590730915
 20
10.6441128568
 30
0.0
 11
93.8590730915
 21
28.0291128568
 31
0.0
 70
   160
  1
<>
 71
     2
 42
-1.0
  3
SLDDIMSTYLE0
100
AcDbAlignedDimension
 13
100.0477133264
 23
45.4141128568
 33
0.0
 14
100.0477133264
 24
10.6441128568
 34
0.0
 50
90.0
100
AcDbRotatedDimension
  0
DIMENSION
  5
435
330
1F
100
AcDbEntity
  8
DIM
100
AcDbDimension
  2
_D_9
 10
123.3944024231
 20
48.326043334
 30
0.0
 11
123.3944024231
 21
46.7265450489
 31
0.0
 70
   160
  1
<>
 71
     2
 42
-1.0
  3
SLDDIMSTYLE1
100
AcDbAlignedDimension
 13
118.1791055854
 23
45.3108128568
 33
0.0
 14
117.5835133264
 24
48.326043334
 34
0.0
 50
90.0
100
AcDbRotatedDimension
  0
ENDSEC
  0
SECTION
  2
OBJECTS
  0
DICTIONARY
  5
C
330
0
100
AcDbDictionary
281
     1
  3
ACAD_GROUP
350
D
  3
ACAD_LAYOUT
350
1A
  3
ACAD_MATERIAL
350
3B
  3
ACAD_MLEADERSTYLE
350
441
  3
ACAD_MLINESTYLE
350
17
  3
ACAD_PLOTSETTINGS
350
19
  3
ACAD_PLOTSTYLENAME
350
E
  3
ACAD_TABLESTYLE
350
440
  0
DICTIONARY
  5
D
102
{ACAD_REACTORS
330
C
102
}
330
C
100
AcDbDictionary
281
     1
  0
DICTIONARY
  5
1A
102
{ACAD_REACTORS
330
C
102
}
330
C
100
AcDbDictionary
281
     1
  3
Layout1
350
1E
  3
Layout2
350
26
  3
Model
350
22
  0
DICTIONARY
  5
3B
102
{ACAD_REACTORS
330
C
102
}
330
C
100
AcDbDictionary
281
     1
  3
ByBlock
350
3D
  3
ByLayer
350
3C
  3
Global
350
3E
  0
DICTIONARY
  5
441
102
{ACAD_REACTORS
330
C
102
}
330
C
100
AcDbDictionary
281
     1
  0
DICTIONARY
  5
17
102
{ACAD_REACTORS
330
C
102
}
330
C
100
AcDbDictionary
281
     1
  3
Standard
350
18
  0
DICTIONARY
  5
19
102
{ACAD_REACTORS
330
C
102
}
330
C
100
AcDbDictionary
281
     1
  0
ACDBDICTIONARYWDFLT
  5
E
102
{ACAD_REACTORS
330
C
102
}
330
C
100
AcDbDictionary
281
     1
  3
Normal
350
F
100
AcDbDictionaryWithDefault
340
F
  0
DICTIONARY
  5
440
102
{ACAD_REACTORS
330
C
102
}
330
C
100
AcDbDictionary
281
     1
  0
LAYOUT
  5
1E
102
{ACAD_REACTORS
330
1A
102
}
330
1A
100
AcDbPlotSettings
  1

  2
none_device
  4

  6

 40
0.0
 41
0.0
 42
0.0
 43
0.0
 44
0.0
 45
0.0
 46
0.0
 47
0.0
 48
0.0
 49
0.0
140
0.0
141
0.0
142
1.0
143
1.0
 70
   688
 72
     0
 73
     0
 74
     5
  7

 75
    16
 76
     0
 77
     2
 78
   300
147
1.0
148
0.0
149
0.0
100
AcDbLayout
  1
Layout1
 70
     1
 71
     1
 10
0.0
 20
0.0
 11
12.0
 21
9.0
 12
0.0
 22
0.0
 32
0.0
 14
1.0000000000E+20
 24
1.0000000000E+20
 34
1.0000000000E+20
 15
-1.0000000000E+20
 25
-1.0000000000E+20
 35
-1.0000000000E+20
146
0.0
 13
0.0
 23
0.0
 33
0.0
 16
1.0
 26
0.0
 36
0.0
 17
0.0
 27
1.0
 37
0.0
 76
     0
330
1B
  0
LAYOUT
  5
26
102
{ACAD_REACTORS
330
1A
102
}
330
1A
100
AcDbPlotSettings
  1

  2
none_device
  4

  6

 40
0.0
 41
0.0
 42
0.0
 43
0.0
 44
0.0
 45
0.0
 46
0.0
 47
0.0
 48
0.0
 49
0.0
140
0.0
141
0.0
142
1.0
143
1.0
 70
   688
 72
     0
 73
     0
 74
     5
  7

 75
    16
 76
     0
 77
     2
 78
   300
147
1.0
148
0.0
149
0.0
100
AcDbLayout
  1
Layout2
 70
     1
 71
     2
 10
0.0
 20
0.0
 11
0.0
 21
0.0
 12
0.0
 22
0.0
 32
0.0
 14
0.0
 24
0.0
 34
0.0
 15
0.0
 25
0.0
 35
0.0
146
0.0
 13
0.0
 23
0.0
 33
0.0
 16
1.0
 26
0.0
 36
0.0
 17
0.0
 27
1.0
 37
0.0
 76
     0
330
23
  0
LAYOUT
  5
22
102
{ACAD_REACTORS
330
1A
102
}
330
1A
100
AcDbPlotSettings
  1

  2
none_device
  4

  6

 40
0.0
 41
0.0
 42
0.0
 43
0.0
 44
0.0
 45
0.0
 46
0.0
 47
0.0
 48
0.0
 49
0.0
140
0.0
141
0.0
142
1.0
143
1.0
 70
  1712
 72
     0
 73
     0
 74
     0
  7

 75
     0
 76
     0
 77
     2
 78
   300
147
1.0
148
0.0
149
0.0
100
AcDbLayout
  1
Model
 70
     1
 71
     0
 10
0.0
 20
0.0
 11
125.0
 21
100.0
 12
0.0
 22
0.0
 32
0.0
 14
0.0
 24
0.0
 34
0.0
 15
125.0
 25
100.0
 35
0.0
146
0.0
 13
0.0
 23
0.0
 33
0.0
 16
1.0
 26
0.0
 36
0.0
 17
0.0
 27
1.0
 37
0.0
 76
     0
330
1F
331
29
  0
MATERIAL
  5
3D
102
{ACAD_REACTORS
330
3B
102
}
330
3B
100
AcDbMaterial
  1
ByBlock
  0
MATERIAL
  5
3C
102
{ACAD_REACTORS
330
3B
102
}
330
3B
100
AcDbMaterial
  1
ByLayer
  0
MATERIAL
  5
3E
102
{ACAD_REACTORS
330
3B
102
}
330
3B
100
AcDbMaterial
  1
Global
  0
MLINESTYLE
  5
18
102
{ACAD_REACTORS
330
17
102
}
330
17
100
AcDbMlineStyle
  2
Standard
 70
     0
  3

 62
   256
 51
90.0
 52
90.0
 71
     2
 49
0.5
 62
   256
  6
BYLAYER
 49
-0.5
 62
   256
  6
BYLAYER
  0
ACDBPLACEHOLDER
  5
F
102
{ACAD_REACTORS
330
E
102
}
330
E
  0
ENDSEC
  0
EOF
